Welcome Guest ( Log In | Register )

> Releases Upload / Добавление релизов

Добавить релиз тут / Click here to add release
Рекомендованные обменники / Recommended file shares

> Plateau Sigma - Symbols - The Sleeping Harmony Of The World Below (2019), Funeral Doom/Death Metal
post Oct 11 2019, 04:53:45
Post #1

Три Литра
***
Group: Завсегдатай
Posts: 296
Releases: 158
On Forums: 7 years 1 month
Thanks: 3900 time(s)
Unknown


(IMG:http://metalarea.org/images/audiocovers/2019_Oct/acov_tid328630_thumb.jpg)

*Artist: Plateau Sigma
*Album: Symbols - The Sleeping Harmony Of The World Below
*Year: 2019
*Genre: Funeral Doom/Death Metal
*Country: Italy (IMG:http://metalarea.org/forum/style_images/flags/Italy.png)
*Format: mp3@CBR320kbps
*Size: 132MB

Tracklist:
1. Heterochromia 07:34
2. Ouija and the Qvantvm 08:12
3. A Parody of Medea 08:29
4. To Mnemosine's Bittersweet Fruit 02:49
5. The Moon Made Flesh 07:39
6. The White Virgin 04:06
7. She Kept the Sacred Fire Still 09:14
8. The Child and the Presence 08:02
******************************
Total playing time: 56:05



Extended info
Personal purchase.

Symbols or The Sleeping Harmony of the World Below
“The imagination is not a state: it is the human existence itself”.
(William Blake)
Symbols are everywhere.
They drag their power from our imagination, weaving a web of secret correspondences between reality and the realm of ideas.
A realm, a world hidden just below the surface, where our deepest desires lie, sleeping.
Symbols represent beliefs, ideals and hopes. They are the insignia under which empires are born and die, gods are worshipped, revolutions explode, kings are consecrated or dethroned.
It has been almost ten years now.A journey which has brought us much further then we thought. We are grateful for everything we experienced along the road, but we feel it's just the beginning of greater things. Three times you've heard our voice before and this is the fourth act of our story.
In the past few years we took a break. We've been crafting sounds, hoping to find the perfect chimera made of our many influences.
We believe this album is that chimera.
These are songs about history, afterlife, revelations, sex, religion, science, magic, war, paradoxes, atoms, myths, dogmas, miracles and wonders.
As metal musicians, we believe it is our duty to inquire the darkest aspects of life, to capture a small hint of the pathos, the beauty and dread of existence.
To plunge into the shady waters of the World Below.
Nino
07/13/2019


Technical info
(IMG:http://metalarea.org/images/spectrogram/2019_Oct/56596620aede17972d204e0b690890a0.png)
Input File: Plateau Sigma - Symbols - The Sleeping Harmony of the World Below - 01 Heterochromia.mp3
Channels : 2
Sample Rate : 44100
Precision : 16-bit
Duration : 00:07:34.14 = 20027442 samples = 34060.3 CDDA sectors
File Size : 18.3M
Bit Rate : 322k
Sample Encoding: MPEG audio (layer I, II or III)
Comments :
Title=Heterochromia
Artist=Plateau Sigma
Album=Symbols - The Sleeping Harmony of the World Below
Tracknumber=1
Year=2019



Register


Go to the top of the page
  Insert nick Quick quote
+Quote Post
 
Start new topic
Replies (1 - 7)
post Oct 12 2019, 08:57:51
Post #2

my church is black
*******
Group: Металариец
Posts: 783
Releases: 1
On Forums: 2 years 4 months
Thanks: 441 time(s)
Cape Verde


нормтак, приятненько. вокалы разные, чистый присутствует. третий трек звучит довольно необычно - как будто Эндрю Элдрич решил в думец податься.
Go to the top of the page
  Insert nick Quick quote
+Quote Post
post Oct 12 2019, 09:01:07
Post #3

Group: Подсевший
Posts: 24
Releases: 1
On Forums: 4 years 2 months
Thanks: 42 time(s)
Unknown


Вот это подгон! (IMG:style_emoticons/default/9.gif) Но, надо сказать, настроение альбома не похоронное. Медитативный, мистический альбом, качественно записанный и разнообразный.
Go to the top of the page
  Insert nick Quick quote
+Quote Post
post Oct 12 2019, 09:42:10
Post #4

####!111
**************
Group: Металариец
Posts: 3,750
Releases: 125
From: The Mountain Of DOOM
On Forums: 12 years 1 week
Thanks: 5267 time(s)
Russian Federation


Вот кстати неплохой кандидат был бы для конкурса по советчикам
Go to the top of the page
  Insert nick Quick quote
+Quote Post
post Oct 12 2019, 13:34:44
Post #5

Ёлд ХеллоВяйне
Group Icon
Group: V.I.P
Posts: 28,023
Releases: 132
From: Питер
On Forums: 12 years 11 months
Thanks: 15909 time(s)
Russian Federation


QUOTE(pothead @ 12th October 2019 - 11:01:07) *
Но, надо сказать, настроение альбома не похоронное.


+1. Слишком шустро. Но, безусловно, интересно.
Go to the top of the page
  Insert nick Quick quote
+Quote Post
post Oct 12 2019, 14:33:44
Post #6

Два Литра
**
Group: Завсегдатай
Posts: 122
Releases: 0
From: Лыткарино
On Forums: 5 months 1 week
Thanks: 31 time(s)
Russian Federation


Неплохо, слушать можно.
Go to the top of the page
  Insert nick Quick quote
+Quote Post
post Oct 12 2019, 17:17:14
Post #7

赑屃
***
Group: Завсегдатай
Posts: 244
Releases: 5
From: Луганск
On Forums: 2 years 6 months
Thanks: 120 time(s)
Russian Federation


Заунывно-медитативный меланхоличный пост-метал с довольно противным дребезжащим вокалистом + неспешный тягучий и размеренный дум с инфернальным рыкуном и вся эта солянка изрядно разбавлена то непредсказуемыми ускорениями, то мистическими атмосферностями.. Хм.. Трудно
решить, что же это такое.. Похоже на чешские рок-оперы, облагороженные в думовой-таки ипостаси.. Временами красиво, временами просто нудно, порой сладко до приторности, а иногда реально жёстко, до грязноты.. Очень неоднозначный альбом..
Go to the top of the page
  Insert nick Quick quote
+Quote Post
post Oct 12 2019, 17:51:40
Post #8

Правь статус, ####!111
**************
Group: Металариец
Posts: 2,681
Releases: 8
From: Dnipro
On Forums: 11 years 3 months
Thanks: 834 time(s)
Ukraine


Чистоголосое пение тут лишнее. (IMG:style_emoticons/default/23.gif)
Музыка интересна.
Go to the top of the page
  Insert nick Quick quote
+Quote Post

Reply to this topicStart new topic
1 User(s) are reading this topic (1 Guests and 0 Anonymous Users)
0 Members:

 



- Lo-Fi Version Support form
Copyrights and abuse reports form
Time is now: 19th October 2019 - 23:38:29