Welcome Guest ( Log In | Register )

> Releases Upload / Добавление релизов

Добавить релиз тут / Click here to add release
Рекомендованные обменники / Recommended file shares

 
Reply to this topicStart new topic
> Sepultura - Choke [single] (1998), Thrash Metal
post Oct 11 2019, 06:24:48
Post #1

Маньяк
**********
Group: Металариец
Posts: 1,217
Releases: 91
On Forums: 6 years 4 weeks
Thanks: 2494 time(s)
Unknown


(IMG:http://metalarea.org/images/audiocovers/2019_Oct/acov_tid328640_thumb.jpg)

*Artist: Sepultura
*Album: Choke [single]
*Year: 1998
*Genre: Thrash Metal
*Country: Brazil (IMG:http://metalarea.org/forum/style_images/flags/Brazil.png)
*Format: mp3@CBR320kbps
*Size: 18MB

Tracklist:
01. Choke 03:38
02. Gene Machine / Don't Bother Me (Bad Brains cover) 02:53
03. Against (demo) 01:39
******************************
Total playing time: 8:10

Technical info
(IMG:http://metalarea.org/images/spectrogram/2019_Oct/043b552e99d1d767a5ffa1ba10399238.png)
Input File: 01 - Choke.mp3
Channels : 2
Sample Rate : 44100
Precision : 16-bit
Duration : 00:03:38.22 = 9623326 samples = 16366.2 CDDA sectors
File Size : 8.76M
Bit Rate : 321k
Sample Encoding: MPEG audio (layer I, II or III)
Comments :
Title=Choke
Artist=Sepultura
Album=Choke
Tracknumber=01/03
Year=1998
Genre=Groove Metal/Nu Metal



Register


Go to the top of the page
  Insert nick Quick quote
+Quote Post

Reply to this topicStart new topic
2 User(s) are reading this topic (2 Guests and 0 Anonymous Users)
0 Members:

 



- Lo-Fi Version Support form
Copyrights and abuse reports form
Time is now: 15th November 2019 - 14:23:53