Welcome Guest ( Log In | Register )

> Releases Upload / Добавление релизов

Добавить релиз тут / Click here to add release
Рекомендованные обменники / Recommended file shares

 
Reply to this topicStart new topic
> Sepultura - The Age Of The Atheist [single] (2013), Thrash Metal
post Oct 11 2019, 06:45:08
Post #1

Маньяк
**********
Group: Металариец
Posts: 1,217
Releases: 91
On Forums: 6 years 1 month
Thanks: 2503 time(s)
Unknown


(IMG:http://metalarea.org/images/audiocovers/2019_Oct/acov_tid328641_thumb.jpg)

*Artist: Sepultura
*Album: The Age Of The Atheist [single]
*Year: 2013
*Genre: Thrash Metal
*Country: Brazil (IMG:http://metalarea.org/forum/style_images/flags/Brazil.png)
*Format: mp3@CBR320kbps
*Size: 21MB

Tracklist:
01. The Age Of The Atheist 04:19
02. Zombie Ritual (Death cover) 04:45
******************************
Total playing time: 9:04

Technical info
(IMG:http://metalarea.org/images/spectrogram/2019_Oct/1da1a90ec2c99cff4a7104785ce9774d.png)
Input File: 01 - The Age Of The Atheist.mp3
Channels : 2
Sample Rate : 44100
Precision : 16-bit
Duration : 00:04:19.15 = 11428603 samples = 19436.4 CDDA sectors
File Size : 10.5M
Bit Rate : 323k
Sample Encoding: MPEG audio (layer I, II or III)
Comments :
Title=The Age Of The Atheist
Artist=Sepultura
Album=The Age Of The Atheist
Tracknumber=01/02
Year=2013
Genre=Thrash Metal/Death Metal



Register


Go to the top of the page
  Insert nick Quick quote
+Quote Post

Reply to this topicStart new topic
2 User(s) are reading this topic (2 Guests and 0 Anonymous Users)
0 Members:

 



- Lo-Fi Version Support form
Copyrights and abuse reports form
Time is now: 21st November 2019 - 12:57:32