Welcome Guest ( Log In | Register )

> Releases Upload / Добавление релизов

Добавить релиз тут / Click here to add release
Рекомендованные обменники / Recommended file shares

 
Reply to this topicStart new topic
> Sepultura - Sepultura Under My Skin [single] (2015), Thrash Metal
post Oct 11 2019, 06:48:07
Post #1

Маньяк
**********
Group: Металариец
Posts: 1,207
Releases: 91
On Forums: 6 years 3 days
Thanks: 2449 time(s)
Unknown


(IMG:http://metalarea.org/images/audiocovers/2019_Oct/acov_tid328642_thumb.jpg)

*Artist: Sepultura
*Album: Sepultura Under My Skin [single]
*Year: 2015
*Genre: Thrash Metal
*Country: Brazil (IMG:http://metalarea.org/forum/style_images/flags/Brazil.png)
*Format: mp3@CBR320kbps
*Size: 17MB

Tracklist:
01. Sepultura Under My Skin 03:46
02. Kairos (live) 03:37
******************************
Total playing time: 7:23

Technical info
(IMG:http://metalarea.org/images/spectrogram/2019_Oct/ac1d816d043053412af69ab4a0d67e18.png)
Input File: 01 - Sepultura Under My Skin.mp3
Channels : 2
Sample Rate : 44100
Precision : 16-bit
Duration : 00:03:46.97 = 10009245 samples = 17022.5 CDDA sectors
File Size : 9.11M
Bit Rate : 321k
Sample Encoding: MPEG audio (layer I, II or III)
Comments :
Title=Sepultura Under My Skin
Artist=Sepultura
Album=Sepultura Under My Skin
Tracknumber=01/02
Year=2015
Genre=Thrash Metal/Death Metal



Register


Go to the top of the page
  Insert nick Quick quote
+Quote Post

Reply to this topicStart new topic
1 User(s) are reading this topic (1 Guests and 0 Anonymous Users)
0 Members:

 



- Lo-Fi Version Support form
Copyrights and abuse reports form
Time is now: 21st October 2019 - 01:56:55