Welcome Guest ( Log In | Register )

> Releases Upload / Добавление релизов

Добавить релиз тут / Click here to add release
Рекомендованные обменники / Recommended file shares

> Fireforce - The Iron Brigade [ep] (2019), Power/Heavy Metal
post Oct 11 2019, 07:10:49
Post #1

MDM-Thrash Metal
**************
Group: Металариец
Posts: 8,889
Releases: 681
From: Одесса
On Forums: 12 years 2 months
Thanks: 18853 time(s)
Ukraine


(IMG:http://metalarea.org/images/audiocovers/2019_Oct/acov_tid328647_thumb.jpg)

*Artist: Fireforce
*Album: The Iron Brigade [ep]
*Year: 2019
*Genre: Power/Heavy Metal
*Country: Belgium (IMG:http://metalarea.org/forum/style_images/flags/Belgium.png)
*Format: mp3@CBR320kbps
*Size: 37MB

Tracklist:
01. The Iron Brigade
02. Revenge in Flames
03. Defector
04. The Boys from Down Under
******************************
Total playing time: 16:16


(IMG:http://metalarea.org/images/youtube.png)


Technical info
(IMG:http://metalarea.org/images/spectrogram/2019_Oct/cd56bc777ae1142c33d9b90e4ae8075c.png)
Input File: 02. Revenge in Flames.mp3
Channels : 2
Sample Rate : 44100
Precision : 16-bit
Duration : 00:03:40.93 = 9743101 samples = 16569.9 CDDA sectors
File Size : 8.94M
Bit Rate : 324k
Sample Encoding: MPEG audio (layer I, II or III)
Comments :
Title=Revenge in Flames
Artist=FireForce
Album=The Iron Brigade
Tracknumber=2/4
Year=2019
Genre=9
Discnumber=1/1



Register


Go to the top of the page
  Insert nick Quick quote
+Quote Post
 
Start new topic
Replies (1 - 1)
post Oct 12 2019, 07:36:49
Post #2

hearer & reader
**************
Group: Металариец
Posts: 8,131
Releases: 105
From: Moscow
On Forums: 12 years 1 month
Thanks: 7599 time(s)
Russian Federation


Перезаписали 4 песни с последнего альбома с новым вокалистом?
Ну-ну..


Thanks:
Go to the top of the page
  Insert nick Quick quote
+Quote Post

Reply to this topicStart new topic
1 User(s) are reading this topic (1 Guests and 0 Anonymous Users)
0 Members:

 



- Lo-Fi Version Support form
Copyrights and abuse reports form
Time is now: 21st October 2019 - 01:31:38