Welcome Guest ( Log In | Register )

> Releases Upload / Добавление релизов

Добавить релиз тут / Click here to add release
Рекомендованные обменники / Recommended file shares

> Arx Atrata - The Path Untravelled (2019), Atmospheric Black Metal
post Oct 11 2019, 10:39:24
Post #1

Шесть Литров
******
Group: Металариец
Posts: 591
Releases: 78
On Forums: 11 years 1 month
Thanks: 1790 time(s)
Portugal


(IMG:http://metalarea.org/images/audiocovers/2019_Oct/acov_tid328650_thumb.jpg)

*Artist: Arx Atrata
*Album: The Path Untravelled
*Year: 2019
*Genre: Atmospheric Black Metal
*Country: United Kingdom (IMG:http://metalarea.org/forum/style_images/flags/United%20Kingdom.png)
*Format: mp3@CBR320kbps
*Size: 130MB

Tracklist:
1. MCMLXXVII 02:27
2. To Be Reborn 05:52
3. An Undying Verse 08:17
4. The Path Untravelled 10:15
5. Elmet 08:51
6. Brethren And Betrayer 06:44
7. The Wraith 10:41
******************************
Total playing time: 53:07



Extended info
Digital purchase.


Technical info
(IMG:http://metalarea.org/images/spectrogram/2019_Oct/6201127b4349d0af43ac25d641c84998.png)
Input File: Arx Atrata - 02 - To Be Reborn.mp3
Channels : 2
Sample Rate : 44100
Precision : 16-bit
Duration : 00:05:52.78 = 15557598 samples = 26458.5 CDDA sectors
File Size : 15.3M
Bit Rate : 346k
Sample Encoding: MPEG audio (layer I, II or III)
Comments :
Title=To Be Reborn
Artist=Arx Atrata
Album=The Path Untravelled
Tracknumber=2
Year=2019
Genre=Atmospheric Black Metal



Register


Go to the top of the page
  Insert nick Quick quote
+Quote Post
 
Start new topic
Replies (1 - 8)
post Oct 11 2019, 16:56:01
Post #2

Group: Подсевший
Posts: 29
Releases: 0
From: Винница
On Forums: 2 years 3 months
Thanks: 14 time(s)
Ukraine


Такой же эпикФЕйл как и предыдущий... И как я понял, надежды на материал в духе прекрасного Обливиона можно даже не питать.


Thanks:
Go to the top of the page
  Insert nick Quick quote
+Quote Post
post Oct 11 2019, 17:16:38
Post #3

Мегаманьяк
***********
Group: Металариец
Posts: 1,552
Releases: 11
From: Комсомольск-на-Амуре
On Forums: 10 years 1 month
Thanks: 467 time(s)
Russian Federation


Второй тоже был хороший, только атмосфера не зимняя, а осенняя скорее. Кое-где слышал Annorkoth с той же осенней меланхолией.


Thanks:
Go to the top of the page
  Insert nick Quick quote
+Quote Post
post Oct 12 2019, 07:21:33
Post #4

my church is black
*******
Group: Металариец
Posts: 784
Releases: 1
On Forums: 2 years 4 months
Thanks: 441 time(s)
Cape Verde


Обливион был шикарен, второй уже хуже.
Этот вроде неплох, по музыке приятно, записано ок. Вокал средненький.
Но уже на середине альбоме начали раздражать опять эти гр[мат->бан]ые соло-запилы на высоких по одной струне, которые нынче пихают в свои песни все, кому не лень. Ну ок, задумка такая, ну дак вплетите их в полотно грамотно, как те же квебекцы, но на кой хрен это выводить на передний план, что аж уши режет??
Такая же история у наших Elderwind и ещё многих других.
Жирный минус за это. Реально бесит и убивает всю обволакивающую атмосферу.
Go to the top of the page
  Insert nick Quick quote
+Quote Post
post Oct 14 2019, 11:12:08
Post #5

Necromancer
Group Icon
Group: Curation team
Posts: 10,949
Releases: 271
From: Зеленоград
On Forums: 13 years 2 weeks
Thanks: 8782 time(s)
Russian Federation


Прогнал разок... Не зацепило. (IMG:style_emoticons/default/21.gif)
Go to the top of the page
  Insert nick Quick quote
+Quote Post
post Oct 14 2019, 19:28:43
Post #6

Все люди - черви.
**********
Group: Металариец
Posts: 1,065
Releases: 121
From: Пхёнъян, Северная Корея
On Forums: 6 years 9 months
Thanks: 3820 time(s)
North Korea


Ссылка не работает
Go to the top of the page
  Insert nick Quick quote
+Quote Post
post Oct 14 2019, 20:40:10
Post #7

WINTER
*******
Group: Металариец
Posts: 797
Releases: 67
On Forums: 11 years 6 months
Thanks: 1868 time(s)
Russian Federation


Register


Go to the top of the page
  Insert nick Quick quote
+Quote Post
post Oct 17 2019, 21:01:11
Post #8

Мегаманьяк
***********
Group: Металариец
Posts: 1,607
Releases: 0
From: Харьков
On Forums: 10 years 3 weeks
Thanks: 639 time(s)
Ukraine


Даже лень слушать как-то, хотя, прошлые ничего такие были вроде (но музыку уже не помню, разумеется (IMG:style_emoticons/default/21.gif) ).
Go to the top of the page
  Insert nick Quick quote
+Quote Post
post Oct 18 2019, 09:38:49
Post #9

Два Литра
**
Group: Завсегдатай
Posts: 104
Releases: 2
On Forums: 9 years 3 months
Thanks: 116 time(s)
Russian Federation


FLAC:
Register


Thanks:
Go to the top of the page
  Insert nick Quick quote
+Quote Post

Reply to this topicStart new topic
1 User(s) are reading this topic (1 Guests and 0 Anonymous Users)
0 Members:

 



- Lo-Fi Version Support form
Copyrights and abuse reports form
Time is now: 21st October 2019 - 00:37:59