Welcome Guest ( Log In | Register )

> И неформату есть предел.

Рэп/хип-хоп/шансон/поп удаляются. Для них есть свои порталы.

 
Reply to this topicStart new topic
> Волны Те - Ночь Серебра [] (2016), Alternative Rock/Post-Punk
post Oct 11 2019, 12:51:33
Post #1

Четыре Литра
****
Group: Металариец
Posts: 350
Releases: 14
On Forums: 10 years 11 months
Thanks: 296 time(s)
Russian Federation


(IMG:http://metalarea.org/images/audiocovers/2019_Oct/acov_tid328654_thumb.jpg)

*Artist: Волны Те
*Album: Ночь Серебра []
*Year: 2016
*Genre: Alternative Rock/Post-Punk
*Country: Russian Federation (IMG:http://metalarea.org/forum/style_images/flags/Russian%20Federation.png)
*Format: mp3@CBR320kbps
*Size: 65MB

Tracklist:
01. Холодно 05:41
02. Есть вчера 02:15
03. Черный пес 08:03
04. Неизвестное нам горе 05:18
05. 1 января 1965 года 07:27
******************************
Total playing time: 28:44

Extended info
«One Man Project» музыканта Александра Вдовина

Все песни записаны в следующем составе:
Александр Вдовин – гитары, бас, перкуссия, шумы, вокал, аранжировки и концепция
Олег Елисеев – барабаны (1,2,3,5), перкуссия (5)
Анастасия Маякина – саксофон (5)
Владислав Мазанов – барабаны (4), оркестровая аранжировка (5).
На стихи:
(1)Георгия Иванова (10.11.1894г. – 26.08. 1958г.); (2,4) Андрея Болотникова; (3) Александра Вдовина; (5) Иосифа Бродского (24. 05.1940г.- 28.01.1996г.)

Запись, сведение и мастеринг произведены Владиславом Мазановым на студии Incorrect Records (г. Владимир) с июня 2015 года по март 2016 года.
В записи использованы аудиофрагменты: (1) – Стихотворение «Натюрмрт» И. Бродского – исполняет автор. (3) Радиопостановка М. Казакова "Фауст" И.-В. фон Гете, Гостелерадио, запись 1985 года.


Technical info
(IMG:http://metalarea.org/images/spectrogram/2019_Oct/bbc3bda45c9fb81cbb12b932ee3728bf.png)
Input File: 02-Есть Вчера.mp3
Channels : 2
Sample Rate : 44100
Precision : 16-bit
Duration : 00:02:11.35 = 5792491 samples = 9851.18 CDDA sectors
File Size : 5.26M
Bit Rate : 320k
Sample Encoding: MPEG audio (layer I, II or III)
Comments :
Title=Есть Вчера
Artist=Волны Те
Album=Ночь Серебра
Tracknumber=02
Year=2016
Genre=Alternative Rock Post-Punk



Register
Go to the top of the page
  Insert nick Quick quote
+Quote Post

Reply to this topicStart new topic
1 User(s) are reading this topic (1 Guests and 0 Anonymous Users)
0 Members:

 



- Lo-Fi Version Support form
Copyrights and abuse reports form
Time is now: 21st October 2019 - 00:43:08