Welcome Guest ( Log In | Register )

> И неформату есть предел.

Рэп/хип-хоп/шансон/поп удаляются. Для них есть свои порталы.

 
Reply to this topicStart new topic
> Deform - Средства Массовой Деформации (2019), Alt.rock/Gothic Rock/Electronic (D7)
post Oct 11 2019, 12:56:31
Post #1

Четыре Литра
****
Group: Металариец
Posts: 347
Releases: 12
On Forums: 10 years 11 months
Thanks: 285 time(s)
Russian Federation


(IMG:http://metalarea.org/images/audiocovers/2019_Oct/acov_tid328655_thumb.jpg)

*Artist: Deform
*Album: Средства Массовой Деформации
*Year: 2019
*Genre: Alt.rock/Gothic Rock/Electronic
*Country: Russian Federation (IMG:http://metalarea.org/forum/style_images/flags/Russian%20Federation.png)
*Format: mp3@CBR320kbps
*Size: 150MB

Tracklist:
01. Radio-Хаос (4:08)
02. Мрачное видение (4:35)
03. Что-то не так (5:20)
04. Мир людских зверей (4:14)
05. Замкнутый круг (5:33)
06. India (6:26)
07. Легенда (4:10)
08. Средства массовой деформации (4:10)
09. Мама антихриста (4:13)
10. Ненависть к старшим (4:12)
11. Revolver (5:25)
12. Мутная вода (5:04)
13. Двум богам (4:16)
14. Прощай ужасный мир (3:30)
******************************
Total playing time: 1:05:16

Technical info
(IMG:http://metalarea.org/images/spectrogram/2019_Oct/a01b0451013974eec22d0e78cf389dc1.png)
Input File: 01. Radio-Хаос.mp3
Channels : 2
Sample Rate : 44100
Precision : 16-bit
Duration : 00:04:08.48 = 10957968 samples = 18636 CDDA sectors
File Size : 10.0M
Bit Rate : 323k
Sample Encoding: MPEG audio (layer I, II or III)
Comments :
Title=Radio-Хаос
Artist=DEFORM
Album=Средства массовой деформации
Tracknumber=1/14
Year=2019
Genre=20
Discnumber=1/1



Register


Thanks:
Go to the top of the page
  Insert nick Quick quote
+Quote Post

Reply to this topicStart new topic
1 User(s) are reading this topic (1 Guests and 0 Anonymous Users)
0 Members:

 



- Lo-Fi Version Support form
Copyrights and abuse reports form
Time is now: 19th October 2019 - 23:51:18