Welcome Guest ( Log In | Register )

> Releases Upload / Добавление релизов

Добавить релиз тут / Click here to add release
Рекомендованные обменники / Recommended file shares

 
Reply to this topicStart new topic
> Gideon - Out Of Control (2019), Metalcore/Hardcore
post Oct 11 2019, 14:25:17
Post #1

Groovy
****
Group: Металариец
Posts: 369
Releases: 55
From: Владимирская обл.
On Forums: 12 years 10 months
Thanks: 912 time(s)
Russian Federation


(IMG:https://metalarea.org/images/audiocovers/2019_Oct/acov_tid328659_thumb.jpg)

*Artist: Gideon
*Album: Out Of Control
*Year: 2019
*Genre: Metalcore/Hardcore
*Country: United States (IMG:https://metalarea.org/forum/style_images/flags/United%20States.png)
*Format: mp3@CBR320kbps
*Size: 89MB

Tracklist:
01. Welcome To S town
02. Sleep
03. Take Me
04. 2 Close (feat. Drew York from Stray From The Path)
05. Low Life
06. Southwind
07. Style
08. Outlaw
09. Life Without
10. Denial
11. Out Of Control
12. Bite Down
******************************
Total playing time: 36:53

Extended info


Technical info
(IMG:https://metalarea.org/images/spectrogram/2019_Oct/1b7babd8f7c6e4bad908d361cc5da988.png)
Input File: 02 SLEEP.mp3
Channels : 2
Sample Rate : 44100
Precision : 16-bit
Duration : 00:03:23.72 = 8983920 samples = 15278.8 CDDA sectors
File Size : 8.15M
Bit Rate : 320k
Sample Encoding: MPEG audio (layer I, II or III)
Comments :
Title=SLEEP
Artist=Gideon
Album=Out of Control
Tracknumber=02/12
Year=2019-19-20
Genre=Metalcore
Discnumber=1/1



Register


Thanks:
Go to the top of the page
  Insert nick Quick quote
+Quote Post

Reply to this topicStart new topic
1 User(s) are reading this topic (1 Guests and 0 Anonymous Users)
0 Members:

 



- Lo-Fi Version Support form
Copyrights and abuse reports form
Time is now: 22nd October 2019 - 07:58:56