Welcome Guest ( Log In | Register )

> Releases Upload / Добавление релизов

Добавить релиз тут / Click here to add release
Рекомендованные обменники / Recommended file shares

> Fleshmeadow - Daymares [ep] (2019), Technical Blackened Death Metal
post Oct 11 2019, 14:29:29
Post #1

Правь статус, ####!111
**************
Group: Металариец
Posts: 19,069
Releases: 12855
From: Г.Харьков
On Forums: 7 years 5 months
Thanks: 220747 time(s)
Unknown


(IMG:http://metalarea.org/images/audiocovers/2019_Oct/acov_tid328660_thumb.jpg)

*Artist: Fleshmeadow
*Album: Daymares [ep]
*Year: 2019
*Genre: Technical Blackened Death Metal
*Country: Norway (IMG:http://metalarea.org/forum/style_images/flags/Norway.png)
*Format: mp3@CBR320kbps
*Size: 53MB

Tracklist:
1. Anti 04:48
2. Daymares 06:02
3. Visions 07:57
4. Visceral 04:24
******************************
Total playing time: 23:11




Extended info
Simen Folkestad Bass
See also: ex-Okular (live), ex-Aeon Throne
Laszlo Juhos Drums
See also: Art Like Destruction, ex-Chainsawtan
Jørn André Størdal Guitars
See also: ex-Aeon Throne
Fabian Jiru Vocals


Technical info
(IMG:http://metalarea.org/images/spectrogram/2019_Oct/0fcc310ef84e4b2ffac123d73b30d37f.png)
Input File: 02 - Daymares.mp3
Channels : 2
Sample Rate : 44100
Precision : 16-bit
Duration : 00:06:03.07 = 16011343 samples = 27230.2 CDDA sectors
File Size : 14.7M
Bit Rate : 323k
Sample Encoding: MPEG audio (layer I, II or III)
Comments :
Title=Daymares
Artist=Fleshmeadow
Album=Daymares
Tracknumber=2
Year=2019-10-11
Genre=Metal
Discnumber=1



Register


Go to the top of the page
  Insert nick Quick quote
+Quote Post
 
Start new topic
Replies (1 - 1)
post Oct 14 2019, 19:25:41
Post #2


**********
Group: Металариец
Posts: 1,263
Releases: 187
From: Подмосковье
On Forums: 10 years 2 months
Thanks: 3214 time(s)
Russian Federation


Блин, мощно, очень круто (IMG:style_emoticons/default/20.gif)
Go to the top of the page
  Insert nick Quick quote
+Quote Post

Reply to this topicStart new topic
1 User(s) are reading this topic (1 Guests and 0 Anonymous Users)
0 Members:

 



- Lo-Fi Version Support form
Copyrights and abuse reports form
Time is now: 19th October 2019 - 22:53:39