Welcome Guest ( Log In | Register )

> Releases Upload / Добавление релизов

Добавить релиз тут / Click here to add release
Рекомендованные обменники / Recommended file shares

 
Reply to this topicStart new topic
> Alpha Virus - Trauma Model [ep] (2019), Deathcore
post Oct 11 2019, 14:40:00
Post #1

Serial Uploader
Group Icon
Group: V.I.P
Posts: 36,306
Releases: 34500
From: Lithuania
On Forums: 11 years 4 months
Thanks: 401573 time(s)
Lithuania


(IMG:https://metalarea.org/images/audiocovers/2019_Oct/acov_tid328664_thumb.jpg)

*Artist: Alpha Virus
*Album: Trauma Model [ep]
*Year: 2019
*Genre: Deathcore
*Country: United States (IMG:https://metalarea.org/forum/style_images/flags/United%20States.png)
*Format: mp3@CBR320kbps
*Size: 35MB

Tracklist:
01. Killing Season 03:00
02. Hostile 02:57
03. Public Enemy (feat. Taylor Barber) 02:24
04. Bodybag 02:42
05. Antagonist 03:32
******************************
Total playing time: 14:35



(IMG:https://metalarea.org/images/youtube.png)

Technical info
(IMG:https://metalarea.org/images/spectrogram/2019_Oct/25c7d6a5f22a30aea6ac18de54860bec.png)
Input File: 02 Hostile.mp3
Channels : 2
Sample Rate : 44100
Precision : 16-bit
Duration : 00:02:57.62 = 7832998 samples = 13321.4 CDDA sectors
File Size : 7.40M
Bit Rate : 333k
Sample Encoding: MPEG audio (layer I, II or III)
Comments :
Title=Hostile
Artist=Alpha Virus
Album=Trauma Model
Tracknumber=2/5
Year=2019
Genre=Beatdown Deathcore
Discnumber=1/1



Register


Thanks:
Go to the top of the page
  Insert nick Quick quote
+Quote Post

Reply to this topicStart new topic
1 User(s) are reading this topic (1 Guests and 0 Anonymous Users)
0 Members:

 



- Lo-Fi Version Support form
Copyrights and abuse reports form
Time is now: 21st October 2019 - 01:00:24