Welcome Guest ( Log In | Register )

> Releases Upload / Добавление релизов

Добавить релиз тут / Click here to add release
Рекомендованные обменники / Recommended file shares

> Eternal Thirst - Purge The Bastards (2019), Heavy/Power Metal
post Oct 11 2019, 15:06:28
Post #1

Правь статус, ####!111
**************
Group: Металариец
Posts: 19,079
Releases: 12876
From: Г.Харьков
On Forums: 7 years 5 months
Thanks: 221010 time(s)
Unknown


(IMG:http://metalarea.org/images/audiocovers/2019_Oct/acov_tid328668_thumb.jpg)

*Artist: Eternal Thirst
*Album: Purge The Bastards
*Year: 2019
*Genre: Heavy/Power Metal
*Country: Chile (IMG:http://metalarea.org/forum/style_images/flags/Chile.png)
*Format: mp3@CBR320kbps
*Size: 89MB

Tracklist:
1. Dark Allegiance (Intro) 03:13
2. Iron Walls 04:27
3. The Last Shot 04:23
4. Blood Letter 05:32
5. Wrath from the Core 06:08
6. Metal Raised from Hell 03:50
7. The Skull Breaker 03:56
8. Purge the Bastards 07:51
******************************
Total playing time: 39:20





Extended info
Hugo Álvarez Bass
Javier Alarcón Guitars
Javier Bustos Guitars
Francisco Vera Drums
Rodrigo Contreras Vocals


Technical info
(IMG:http://metalarea.org/images/spectrogram/2019_Oct/29147b5bcb98bffdb5e39be63ededc2a.png)
Input File: 04 - Blood Letter (The Prince of Darkness).mp3
Channels : 2
Sample Rate : 44100
Precision : 16-bit
Duration : 00:05:29.08 = 14512516 samples = 24681.1 CDDA sectors
File Size : 13.3M
Bit Rate : 322k
Sample Encoding: MPEG audio (layer I, II or III)
Comments :
Title=Blood Letter (The Prince of Darkness)
Artist=Eternal Thirst
Album=Purge the Bastards
Tracknumber=4
Year=2019-09-13
Discnumber=1



Register


Go to the top of the page
  Insert nick Quick quote
+Quote Post
 
Start new topic
Replies (1 - 2)
post Oct 12 2019, 15:55:03
Post #2

Правь статус, ####!111
**************
Group: Металариец
Posts: 19,079
Releases: 12876
From: Г.Харьков
On Forums: 7 years 5 months
Thanks: 221010 time(s)
Unknown


Cloud Mail 320
Register
Go to the top of the page
  Insert nick Quick quote
+Quote Post
post Oct 12 2019, 22:51:43
Post #3

Ёлд ХеллоВяйне
Group Icon
Group: V.I.P
Posts: 28,024
Releases: 132
From: Питер
On Forums: 12 years 11 months
Thanks: 15910 time(s)
Russian Federation


QUOTE(Samaritianin @ 11th October 2019 - 17:06:28) *
8. Purge the Bastards 07:51


Судя по ролику, в два раза длиннее. Музыка ок, но с таким вокалом сами слушайте.
Go to the top of the page
  Insert nick Quick quote
+Quote Post

Reply to this topicStart new topic
1 User(s) are reading this topic (1 Guests and 0 Anonymous Users)
0 Members:

 



- Lo-Fi Version Support form
Copyrights and abuse reports form
Time is now: 21st October 2019 - 01:22:01