Welcome Guest ( Log In | Register )

> Releases Upload / Добавление релизов

Добавить релиз тут / Click here to add release
Рекомендованные обменники / Recommended file shares

 
Reply to this topicStart new topic
> Stargazer - The Sky Is The Limit (2019), Heavy Metal/Hard Rock (D)
post Oct 11 2019, 15:31:07
Post #1

MDM-Thrash Metal
**************
Group: Металариец
Posts: 8,889
Releases: 681
From: Одесса
On Forums: 12 years 2 months
Thanks: 18853 time(s)
Ukraine


(IMG:http://metalarea.org/images/audiocovers/2019_Oct/acov_tid328672_thumb.jpg)

*Artist: Stargazer
*Album: The Sky Is The Limit
*Year: 2019
*Genre: Heavy Metal/Hard Rock
*Country: Norway (IMG:http://metalarea.org/forum/style_images/flags/Norway.png)
*Format: mp3@CBR320kbps
*Size: 152MB

Tracklist:
01. The Sky Is the Limit
02. I'm the One
03. Shadow Chaser
04. So Now You're Leaving
05. Lost Generation
06. Cold as Ice
07. Turn Me on Forever
08. Every Dog Has Its Day
09. Racing the Devil
10. Come to Me
11. Sentimental Guy
12. Takin' It Slow
13. Silenced by the Wind
******************************
Total playing time: 1:06:10


(IMG:http://metalarea.org/images/youtube.png)
(IMG:http://metalarea.org/images/youtube.png)
(IMG:http://metalarea.org/images/youtube.png)


Technical info
(IMG:http://metalarea.org/images/spectrogram/2019_Oct/976b6b808d463cb187294b2f310c5d10.png)
Input File: 1 - The Sky Is the Limit.mp3
Channels : 2
Sample Rate : 44100
Precision : 16-bit
Duration : 00:04:45.64 = 12596636 samples = 21422.9 CDDA sectors
File Size : 11.5M
Bit Rate : 321k
Sample Encoding: MPEG audio (layer I, II or III)
Comments :
Title=The Sky Is the Limit
Artist=Stargazer
Album=The Sky Is the Limit
Tracknumber=1
Year=2019
Genre=Rock/Hard Rock/Metal
Discnumber=1



Register


Go to the top of the page
  Insert nick Quick quote
+Quote Post

Reply to this topicStart new topic
1 User(s) are reading this topic (1 Guests and 0 Anonymous Users)
0 Members:

 



- Lo-Fi Version Support form
Copyrights and abuse reports form
Time is now: 21st October 2019 - 01:08:07