Welcome Guest ( Log In | Register )

> Правила / Rules

Тут только для чтения лежат низкобитрейтные (<192kbps) релизы, для которых есть аналоги в высокобитрейтных форумах.

Here goes (and stand in read only mode) low bitrate releases (<192kbps) which were already replaced by high bitrate releases in corresponding forums.

> Opium Lord - Vore (2019), Sludge/Doom Metal
post Oct 11 2019, 15:35:43
Post #1

Правь статус, ####!111
**************
Group: Металариец
Posts: 2,821
Releases: 2523
From: Одесса
On Forums: 12 years 3 days
Thanks: 23997 time(s)
Ukraine


(IMG:http://metalarea.org/images/audiocovers/2019_Oct/acov_tid328673_thumb.jpg)

*Artist: Opium Lord
*Album: Vore
*Year: 2019
*Genre: Sludge/Doom Metal
*Country: United Kingdom (IMG:http://metalarea.org/forum/style_images/flags/United%20Kingdom.png)
*Format: mp3@CBR128kbps (IMG:http://metalarea.org/images/bit_low.gif)
*Size: 38MB

Tracklist:
1.WWCD 03:45
2.Lead Magnet 05:39
3.Centurion 05:13
4.Suture 05:37
5.Cherwood Is Connector 05:44
6.Columbia (Featuring Mike Scheidt) 07:46
7.Gift 06:31
******************************
Total playing time: 40:15



Extended info
Line - up:

Neil - Bass (ex-Teat)
Bruce - Drums (The Dead at Sea)
Adam Beckley - Guitars
Luke Fewtrell - Guitars
Simon Blewitt - Guitars (Sealclubber, Empires of Light)
Nathan Coyle - Vocals

(IMG:https://f4.bcbits.com/img/0007717636_10.jpg)


Technical info
(IMG:http://metalarea.org/images/spectrogram/2019_Oct/8fa80f0dcdf08d0f8c14b477f3bc467b.png)
Input File: 04 - Suture.mp3
Channels : 2
Sample Rate : 44100
Precision : 16-bit
Duration : 00:05:36.94 = 14859054 samples = 25270.5 CDDA sectors
File Size : 5.39M
Bit Rate : 128k
Sample Encoding: MPEG audio (layer I, II or III)
Comments :
Title=Suture
Artist=Opium Lord
Album=Vore
Tracknumber=4
Year=2019
Genre=Doom/Sludge Metal



Register


Go to the top of the page
  Insert nick Quick quote
+Quote Post
 
Start new topic
Replies (1 - 1)
post Oct 12 2019, 16:55:00
Post #2

Наливай!
**************
Group: Металариец
Posts: 5,727
Releases: 27
From: Москва-Бибирево
On Forums: 12 years 2 months
Thanks: 2898 time(s)
Russian Federation


Go to the top of the page
  Insert nick Quick quote
+Quote Post

Причина закрытия (Borderline1991 01-11-2019):
Closed TopicStart new topic
1 User(s) are reading this topic (1 Guests and 0 Anonymous Users)
0 Members:

 



- Lo-Fi Version Support form
Copyrights and abuse reports form
Time is now: 5th June 2020 - 22:18:43