Welcome Guest ( Log In | Register )

> Releases Upload / Добавление релизов

Добавить релиз тут / Click here to add release
Рекомендованные обменники / Recommended file shares

 
Reply to this topicStart new topic
> Mobile Deathcamp - Vol 4-Ish [ep] (2019), Thrash Metal
post Oct 11 2019, 15:47:01
Post #1

Правь статус, ####!111
**************
Group: Металариец
Posts: 19,079
Releases: 12876
From: Г.Харьков
On Forums: 7 years 5 months
Thanks: 221010 time(s)
Unknown


(IMG:http://metalarea.org/images/audiocovers/2019_Oct/acov_tid328674_thumb.jpg)

*Artist: Mobile Deathcamp
*Album: Vol 4-Ish [ep]
*Year: 2019
*Genre: Thrash Metal
*Country: United States (IMG:http://metalarea.org/forum/style_images/flags/United%20States.png)
*Format: mp3@CBR320kbps
*Size: 25MB

Tracklist:
1. Sour Cremation 02:15
2. Jealous Again 01:52
3. Alchemy of the Black Sun Shark 01:47
4. Simply Effective 01:47
5. Warheit 02:51
******************************
Total playing time: 10:32



Extended info
Matt Reish Bass
See also: Hailshot
Chad Smith Drums
See also: Threat Level
T Guitars, Vocals
See also: ex-Gwar


Technical info
(IMG:http://metalarea.org/images/spectrogram/2019_Oct/86b8aee4fdd78169b27f54b8b1d65f29.png)
Input File: 05 - Warheit.mp3
Channels : 2
Sample Rate : 44100
Precision : 16-bit
Duration : 00:02:51.61 = 7567869 samples = 12870.5 CDDA sectors
File Size : 6.95M
Bit Rate : 324k
Sample Encoding: MPEG audio (layer I, II or III)
Comments :
Title=Warheit
Artist=Mobile Deathcamp
Album=Vol 4-Ish
Tracknumber=5
Year=2019-10-04
Genre=Metal
Discnumber=1



Register


Go to the top of the page
  Insert nick Quick quote
+Quote Post

Reply to this topicStart new topic
1 User(s) are reading this topic (1 Guests and 0 Anonymous Users)
0 Members:

 



- Lo-Fi Version Support form
Copyrights and abuse reports form
Time is now: 21st October 2019 - 01:18:54