Welcome Guest ( Log In | Register )

> И неформату есть предел.

Рэп/хип-хоп/шансон/поп удаляются. Для них есть свои порталы.

 
Reply to this topicStart new topic
> Life Of Agony - The Sound Of Scars (2019), Alternative Metal/Rock (D4)
post Oct 11 2019, 16:25:23
Post #1

Каждое ваше "Спасибо" помогает мне понять, что я делаю новости не напрасно.
**************
Group: Металариец
Posts: 2,003
Releases: 1758
From: Одесса
On Forums: 11 years 4 months
Thanks: 15231 time(s)
Ukraine


(IMG:http://metalarea.org/images/audiocovers/2019_Oct/acov_tid328675_thumb.jpg)

*Artist: Life Of Agony
*Album: The Sound Of Scars
*Year: 2019
*Genre: Alternative Metal/Rock
*Country: United States (IMG:http://metalarea.org/forum/style_images/flags/United%20States.png)
*Format: mp3@CBR320kbps
*Size: 96MB

Tracklist:
1.Prelude 00:31 instrumental
2.Scars 02:46
3.Black Heart 03:32
4.Lay Down 03:49
5.Then 01:17
6.Empty Hole 03:03
7.My Way Out 03:56
8.Eliminate 02:16
9.Now 01:30
10.Once Below 03:31
11.Stone 03:21
12.Weight of the World 03:33
13.When 01:43
14.I Surrender 05:56
******************************
Total playing time: 40:44



Extended info
Line - up:

Alan Robert - Bass, Vocals (Spoiler NYC, ex-Among Thieves)
Joey Z. - Guitars, Vocals (ex-Carnivore, ex-Eyes of the Dead, ex-Stereomud)
Mina Caputo - Vocals (lead), Keyboards, Vocals (lead) (Mina Caputo, ex-Absolute Bloom, ex-Freax, ex-Keith Caputo)
Veronica Bellino - Drums (ex-After Dark)

(IMG:https://www.metal-archives.com/images/3/5/4/0/3540373969_photo.jpg?1825)


Technical info
(IMG:http://metalarea.org/images/spectrogram/2019_Oct/e77c4ff69be647da0c3889f55a68e12d.png)
Input File: 11. Stone.mp3
Channels : 2
Sample Rate : 44100
Precision : 16-bit
Duration : 00:03:21.68 = 8894044 samples = 15125.9 CDDA sectors
File Size : 8.07M
Bit Rate : 320k
Sample Encoding: MPEG audio (layer I, II or III)
Comments :
Title=Stone
Artist=Life of Agony
Album=The Sound of Scars
Tracknumber=11
Year=2019
Genre=Alternative Metal/Rock



Register


Go to the top of the page
  Insert nick Quick quote
+Quote Post

Reply to this topicStart new topic
1 User(s) are reading this topic (1 Guests and 0 Anonymous Users)
0 Members:

 



- Lo-Fi Version Support form
Copyrights and abuse reports form
Time is now: 21st October 2019 - 00:38:47