Welcome Guest ( Log In | Register )

> Releases Upload / Добавление релизов

Добавить релиз тут / Click here to add release
Рекомендованные обменники / Recommended file shares

 
Reply to this topicStart new topic
> Thrashwitch - A New England Folktale [ep] (2019), Black/Thrash Metal
post Oct 11 2019, 16:34:44
Post #1

Правь статус, ####!111
**************
Group: Металариец
Posts: 19,079
Releases: 12876
From: Г.Харьков
On Forums: 7 years 5 months
Thanks: 221012 time(s)
Unknown


(IMG:http://metalarea.org/images/audiocovers/2019_Oct/acov_tid328676_thumb.jpg)

*Artist: Thrashwitch
*Album: A New England Folktale [ep]
*Year: 2019
*Genre: Black/Thrash Metal
*Country: United Kingdom (IMG:http://metalarea.org/forum/style_images/flags/United%20Kingdom.png)
*Format: mp3@CBR320kbps
*Size: 20MB

Tracklist:
1. The Origin Of Darkness 01:58
2. Driven To Suicide 02:15
3. Atomic Sickness 02:44
4. Airborne Annihilation 01:58
******************************
Total playing time: 8:55




Extended info
Will Martell : Guitar / Bass / Backing Vocals
Rob Cinami : Drums / Vocals


Technical info
(IMG:http://metalarea.org/images/spectrogram/2019_Oct/8c16cc7661a23336e0284b3e767111d1.png)
Input File: 02 Driven To Suicide.mp3
Channels : 2
Sample Rate : 44100
Precision : 16-bit
Duration : 00:02:15.30 = 5966510 samples = 10147.1 CDDA sectors
File Size : 5.50M
Bit Rate : 325k
Sample Encoding: MPEG audio (layer I, II or III)
Comments :
Title=Driven To Suicide
Artist=Thrashwitch
Album=A New England Folktale
Tracknumber=2
Year=2019



Register


Go to the top of the page
  Insert nick Quick quote
+Quote Post

Reply to this topicStart new topic
1 User(s) are reading this topic (1 Guests and 0 Anonymous Users)
0 Members:

 



- Lo-Fi Version Support form
Copyrights and abuse reports form
Time is now: 21st October 2019 - 01:30:11