Welcome Guest ( Log In | Register )

> Releases Upload / Добавление релизов

Добавить релиз тут / Click here to add release
Рекомендованные обменники / Recommended file shares

 
Reply to this topicStart new topic
> Necrotted - Die For Something Worthwhile [ep] (2019), Death Metal/Deathcore
post Oct 11 2019, 16:48:45
Post #1

Каждое ваше "Спасибо" помогает мне понять, что я делаю новости не напрасно.
**************
Group: Металариец
Posts: 2,003
Releases: 1758
From: Одесса
On Forums: 11 years 4 months
Thanks: 15233 time(s)
Ukraine


(IMG:http://metalarea.org/images/audiocovers/2019_Oct/acov_tid328678_thumb.jpg)

*Artist: Necrotted
*Album: Die For Something Worthwhile [ep]
*Year: 2019
*Genre: Death Metal/Deathcore
*Country: Germany (IMG:http://metalarea.org/forum/style_images/flags/Germany.png)
*Format: mp3@CBR320kbps
*Size: 29MB

Tracklist:
1.Die for Something Worthwhile 03:17
2.Eudaimonia 03:34
3.Six Feet Deep, No Party Too Steep 03:04
4.Weltschmerz 03:11
******************************
Total playing time: 13:06



Extended info
Line - up:

Fabian Fink - Vocals (ex-Hackneyed)
Markus Braun - Drums (ex-Cathedraline)
Philipp Fink - Guitars (ex-Hackneyed)
Koray Saglam - Bass (Rotten Pope)
Pavlos Chatzistavridis - Vocals

(IMG:https://www.metal-archives.com/images/3/5/4/0/3540306787_photo.jpg?1250)


Technical info
(IMG:http://metalarea.org/images/spectrogram/2019_Oct/5600077577caab8b500709feedd1681f.png)
Input File: 03. Six Feet Deep, No Party Too Steep.mp3
Channels : 2
Sample Rate : 44100
Precision : 16-bit
Duration : 00:03:04.73 = 8146373 samples = 13854.4 CDDA sectors
File Size : 7.39M
Bit Rate : 320k
Sample Encoding: MPEG audio (layer I, II or III)
Comments :
Title=Six Feet Deep, No Party Too Steep
Artist=Necrotted
Album=Die for Something Worthwhile (EP)
Tracknumber=3
Year=2019
Genre=Death Metal/Deathcore



Register


Thanks:
Go to the top of the page
  Insert nick Quick quote
+Quote Post

Reply to this topicStart new topic
1 User(s) are reading this topic (1 Guests and 0 Anonymous Users)
0 Members:

 



- Lo-Fi Version Support form
Copyrights and abuse reports form
Time is now: 21st October 2019 - 01:41:00