Welcome Guest ( Log In | Register )

> Releases Upload / Добавление релизов

Добавить релиз тут / Click here to add release
Рекомендованные обменники / Recommended file shares

> Screamer - Highway Of Heroes (2019), Heavy Metal
post Oct 11 2019, 17:24:10
Post #1

MDM-Thrash Metal
**************
Group: Металариец
Posts: 8,902
Releases: 684
From: Одесса
On Forums: 12 years 2 months
Thanks: 18899 time(s)
Ukraine


(IMG:http://metalarea.org/images/audiocovers/2019_Oct/acov_tid328680_thumb.jpg)

*Artist: Screamer
*Album: Highway Of Heroes
*Year: 2019
*Genre: Heavy Metal
*Country: Sweden (IMG:http://metalarea.org/forum/style_images/flags/Sweden.png)
*Format: mp3@CBR320kbps
*Size: 81MB

Tracklist:
1. Intro 01:11
2. Ride On 03:26
3. Shadow Hunter 03:07
4. Rider of Death 03:41
5. Sacrifice 04:40
6. Halo 04:17
7. Highway of Heroes 03:43
8. Out of the Dark 03:22
9. Towers of Babylon 02:55
10. Caught in Lies 05:01
******************************
Total playing time: 35:23



(IMG:http://metalarea.org/images/youtube.png)
(IMG:http://metalarea.org/images/youtube.png)
(IMG:http://metalarea.org/images/youtube.png)

Technical info
(IMG:http://metalarea.org/images/spectrogram/2019_Oct/6617ed9cc5de7fb129a35f146a1694b1.png)
Input File: 2 - Shadow Hunter.mp3
Channels : 2
Sample Rate : 44100
Precision : 16-bit
Duration : 00:03:06.92 = 8242996 samples = 14018.7 CDDA sectors
File Size : 7.56M
Bit Rate : 323k
Sample Encoding: MPEG audio (layer I, II or III)
Comments :
Title=Shadow Hunter
Artist=Screamer
Album=Highway of Heroes
Tracknumber=2
Year=2019
Genre=Rock/Hard Rock/Metal
Discnumber=1



Register


Go to the top of the page
  Insert nick Quick quote
+Quote Post
 
Start new topic
Replies (1 - 1)
post Oct 18 2019, 12:40:13
Post #2

Group: Подсевший
Posts: 20
Releases: 0
On Forums: 11 years 4 months
Thanks: 6 time(s)
Russian Federation


Б-ть, дак тут тоже без интро. Помню, что самаритяниновский архив качал - его, одно что, в файнд отправили. Здесь тот же самый рип, получается.

С релизом, кстати, стоит ознакомиться любителям олдскула.
Go to the top of the page
  Insert nick Quick quote
+Quote Post

Reply to this topicStart new topic
1 User(s) are reading this topic (1 Guests and 0 Anonymous Users)
0 Members:

 



- Lo-Fi Version Support form
Copyrights and abuse reports form
Time is now: 22nd October 2019 - 07:16:25