Welcome Guest ( Log In | Register )

> Releases Upload / Добавление релизов

Добавить релиз тут / Click here to add release
Рекомендованные обменники / Recommended file shares

> Daemoniac - Regents Of Chaos (2019), Black Metal
post Oct 11 2019, 17:32:26
Post #1

Правь статус, ####!111
**************
Group: Металариец
Posts: 19,102
Releases: 12898
From: Г.Харьков
On Forums: 7 years 5 months
Thanks: 221300 time(s)
Unknown


(IMG:http://metalarea.org/images/audiocovers/2019_Oct/acov_tid328681_thumb.jpg)

*Artist: Daemoniac
*Album: Regents Of Chaos
*Year: 2019
*Genre: Black Metal
*Country: Colombia (IMG:http://metalarea.org/forum/style_images/flags/Colombia.png)
*Format: mp3@CBR320kbps
*Size: 99MB

Tracklist:
01. Under The Shadow Of Rigel 02:20
02. Regents Of Chaos 06:49
03. Ancient Legions 06:28
04. A Dead World In The Time 05:41
05. Funeral Of The Dark Conquerors 04:54
06. Bastard´s Of Creation 05:44
07. Returns Of Rigelians 05:26
08. Laments Of Death 05:38
******************************
Total playing time: 43:00



Extended info
Demgel (Lead guitar and Lead voice)
Monarca (Drums)
Adramelech (Guitar and voice)
Mortum ( Bass and voice )



Technical info
(IMG:http://metalarea.org/images/spectrogram/2019_Oct/2a2e52f28843f9d1a8f0387d7be3d0c6.png)
Input File: 03 - Ancient Legions.mp3
Channels : 2
Sample Rate : 44100
Precision : 16-bit
Duration : 00:06:28.46 = 17131174 samples = 29134.6 CDDA sectors
File Size : 15.6M
Bit Rate : 322k
Sample Encoding: MPEG audio (layer I, II or III)
Comments :
Title=Ancient Legions
Artist=Daemoniac
Album=Regents Of Chaos
Tracknumber=3
Year=2019-10-11
Discnumber=1



Register


Go to the top of the page
  Insert nick Quick quote
+Quote Post
 
Start new topic
Replies (1 - 1)
post Oct 12 2019, 16:22:13
Post #2

Правь статус, ####!111
**************
Group: Металариец
Posts: 19,102
Releases: 12898
From: Г.Харьков
On Forums: 7 years 5 months
Thanks: 221300 time(s)
Unknown


Cloud Mail 320
Register


Thanks:
(1) atavist,
Go to the top of the page
  Insert nick Quick quote
+Quote Post

Reply to this topicStart new topic
1 User(s) are reading this topic (1 Guests and 0 Anonymous Users)
0 Members:

 



- Lo-Fi Version Support form
Copyrights and abuse reports form
Time is now: 22nd October 2019 - 06:42:33