Welcome Guest ( Log In | Register )

> Releases Upload / Добавление релизов

Добавить релиз тут / Click here to add release
Рекомендованные обменники / Recommended file shares

 
Reply to this topicStart new topic
> Esophageal - Craving Delusions (2019), Brutal Death Metal
post Oct 11 2019, 18:03:06
Post #1

Правь статус, ####!111
**************
Group: Металариец
Posts: 19,079
Releases: 12876
From: Г.Харьков
On Forums: 7 years 5 months
Thanks: 221010 time(s)
Unknown


(IMG:http://metalarea.org/images/audiocovers/2019_Oct/acov_tid328682_thumb.jpg)

*Artist: Esophageal
*Album: Craving Delusions
*Year: 2019
*Genre: Brutal Death Metal
*Country: International (IMG:http://metalarea.org/forum/style_images/flags/International.png)
*Format: mp3@CBR320kbps
*Size: 69MB

Tracklist:
01. Morbid Engravers of Blood Covenant
02. Craving Delusions of Anxious Astonishment
03. Execrable Rituals in Mesmerizing Red Chambers
04. Final Engodment Through Flesh Wizardry
05. Upon the Tombs of Ancient Impossibilities
06. Deluded Blind Sorcery
07. Apostasy Induced Inevitability
08. Prophesied upon Defiled Innards
09. Crossroad of Forbidden Ceremonies
10. In Excommunicationem
******************************
Total playing time: 29:30



Extended info
Spain / Italy / Russia

DisJorge Bass (2018-present)
See also: Endoparasitic, Fixation on Suffering, MDMA, Strappado, Tomb, Virulency, ex-Infertile Surrogacy, ex-Septycemia, Putreseminal Viscosity, Tortured
Roman Tyutin Drums (2018-present)
See also: Psychopathic, Scatology Secretion, Symbiothic, ByoNoiseGenerator, Skii, ex-Cranial Osteotomy, ex-Lethality, ex-Coherent Souls Orchestra
Oscar Guitars (2018-present)
See also: Ergosphere, Fixation on Suffering, Molecular Fragmentation, Scatology Secretion, Strappado, Tomb, Unethical Human Experiments, ex-Septycemia, Eradicated, Induced, Intraocular Anomalies, Tortured, ex-Cerebral Effusion, ex-Endoparasitic, ex-Forensick, ex-Experiments in Torture, ex-Putreseminal Viscosity, ex-Servants of the Sword
Paolo Chiti Vocals (2018-present)
See also: Antropofagus, Devangelic, Fixation on Suffering, Interminable Corruptions, ex-Gorefuck, Sewage, ex-Corpsefucking Art, ex-Putridity


Technical info
(IMG:http://metalarea.org/images/spectrogram/2019_Oct/d4aaa9105dedcf1921fe356660d02555.png)
Input File: 04. Final Engodment Through Flesh Wizardry.mp3
Channels : 2
Sample Rate : 44100
Precision : 16-bit
Duration : 00:03:10.32 = 8392892 samples = 14273.6 CDDA sectors
File Size : 7.71M
Bit Rate : 324k
Sample Encoding: MPEG audio (layer I, II or III)
Comments :
Title=Final Engodment Through Flesh Wizardry
Artist=Esophageal
Album=Craving Delusions
Tracknumber=4/10
Year=2019
Genre=Brutal Death
Discnumber=1/1



Register


Go to the top of the page
  Insert nick Quick quote
+Quote Post

Reply to this topicStart new topic
1 User(s) are reading this topic (1 Guests and 0 Anonymous Users)
0 Members:

 



- Lo-Fi Version Support form
Copyrights and abuse reports form
Time is now: 21st October 2019 - 01:27:16