Welcome Guest ( Log In | Register )

> Releases Upload / Добавление релизов

Добавить релиз тут / Click here to add release
Рекомендованные обменники / Recommended file shares

> Dödfödd - Stigma (2019), Black Metal
post Oct 11 2019, 18:11:57
Post #1

Каждое ваше "Спасибо" помогает мне понять, что я делаю новости не напрасно.
**************
Group: Металариец
Posts: 2,003
Releases: 1758
From: Одесса
On Forums: 11 years 4 months
Thanks: 15231 time(s)
Ukraine


(IMG:http://metalarea.org/images/audiocovers/2019_Oct/acov_tid328683_thumb.jpg)

*Artist: Dödfödd
*Album: Stigma
*Year: 2019
*Genre: Black Metal
*Country: Sweden (IMG:http://metalarea.org/forum/style_images/flags/Sweden.png)
*Format: mp3@CBR320kbps
*Size: 96MB

Tracklist:
1.Stigma I 22:32
2.Stigma II 21:37
******************************
Total playing time: 44:09



Extended info
Line - up:

Atum - Drums, Vocals )Reverorum ib Malacht, ex-AnXpm, PCT, Sekten, ex-Emit, ex-Ofermod, ex-Ix Eagodos, ex-Symphonia Sacrosancta Phasmatvm)
Johan Gustafsson - Unknown (Reverorum ib Malacht, Sekten)

(IMG:https://www.metal-archives.com/images/1/0/1/9/10196_photo.jpg)


Technical info
(IMG:http://metalarea.org/images/spectrogram/2019_Oct/2823b434a694e929e9c74b1a7e08bc62.png)
Input File: 01. Stigma I.mp3
Channels : 2
Sample Rate : 44100
Precision : 16-bit
Duration : 00:22:32.15 = 59629815 samples = 101411 CDDA sectors
File Size : 54.1M
Bit Rate : 320k
Sample Encoding: MPEG audio (layer I, II or III)
Comments :
Title=Stigma I
Artist=Dödfödd
Album=Stigma
Tracknumber=1
Year=2019
Genre=138



Register


Go to the top of the page
  Insert nick Quick quote
+Quote Post
 
Start new topic
Replies (1 - 3)
post Oct 12 2019, 18:29:29
Post #2

Crush! Kill! Destroy!
**************
Group: Металариец
Posts: 5,088
Releases: 15
From: Kaliningrad
On Forums: 11 years 11 months
Thanks: 4671 time(s)
Russian Federation


В целом назвать это Блэком даже непонятно как ... Набор рудиментов и прочих барабанных тарахтелок. Хотя что-то в этом есть, эдакая экстремальная разновидность эмбиента (IMG:style_emoticons/default/headcrab.png)
Go to the top of the page
  Insert nick Quick quote
+Quote Post
post Oct 12 2019, 18:56:18
Post #3

а ты попал в даунтаун
**********
Group: Металариец
Posts: 1,240
Releases: 49
From: Москва
On Forums: 10 years 5 months
Thanks: 3412 time(s)
Russian Federation


ЦИТАТА(Dmitry1977 @ 12th October 2019 - 20:29:29) *
В целом назвать это Блэком даже непонятно как ... Набор рудиментов и прочих барабанных тарахтелок. Хотя что-то в этом есть, эдакая экстремальная разновидность эмбиента
ЦИТАТА(Necrokilldozer @ 11th October 2019 - 20:11:57) *
Atum - Drums, Vocals (Reverorum ib Malacht, ex-AnXpm, PCT, Sekten, ex-Emit, ex-Ofermod, ex-Ix Eagodos, ex-Symphonia Sacrosancta Phasmatvm)
Johan Gustafsson - Unknown (Reverorum ib Malacht, Sekten)
Ну да, кто бы мог подумать, что всё здесь будет именно так (IMG:style_emoticons/default/13.gif)


Thanks:
(2) Kazoth, RUSP73,
Go to the top of the page
  Insert nick Quick quote
+Quote Post
post Oct 13 2019, 00:06:24
Post #4

за бибу.ЗА БОБУ.
**************
Group: Металариец
Posts: 3,055
Releases: 0
On Forums: 3 years 8 months
Thanks: 1866 time(s)
Unknown


ЦИТАТА(Necrokilldozer @ 11th October 2019 - 22:11:57) *
Reverorum ib Malacht

почему не выпустили под этой вывеской, безумие соответсвует же.
Go to the top of the page
  Insert nick Quick quote
+Quote Post

Reply to this topicStart new topic
1 User(s) are reading this topic (1 Guests and 0 Anonymous Users)
0 Members:

 



- Lo-Fi Version Support form
Copyrights and abuse reports form
Time is now: 21st October 2019 - 00:41:49