Welcome Guest ( Log In | Register )

> Releases Upload / Добавление релизов

Добавить релиз тут / Click here to add release
Рекомендованные обменники / Recommended file shares

> The Body - Remixed (2019), Experimental Sludge/Doom Metal/Noise/Industrial (D)
post Oct 11 2019, 18:18:19
Post #1

Каждое ваше "Спасибо" помогает мне понять, что я делаю новости не напрасно.
**************
Group: Металариец
Posts: 2,003
Releases: 1758
From: Одесса
On Forums: 11 years 4 months
Thanks: 15233 time(s)
Ukraine


(IMG:http://metalarea.org/images/audiocovers/2019_Oct/acov_tid328684_thumb.jpg)

*Artist: The Body
*Album: Remixed
*Year: 2019
*Genre: Experimental Sludge/Doom Metal/Noise/Industrial
*Country: United States (IMG:http://metalarea.org/forum/style_images/flags/United%20States.png)
*Format: mp3@CBR320kbps
*Size: 122MB

Tracklist:
1.A Curse (Remixed by Moss of Aura)
2.Adamah (Remixed by OAA)
3.Ten Times a Day Everyday a Stranger (Remixed by Container)
4.Denial of the Species (Remixed by Mark Solotroff)
5.Off Script (Remixed by Moor Mother)
6.Wanderings (Remixed by Andrew Nolan)
7.An Urn (Remixed by Sow Discord)
8.Can Carry No Weight (Remixed by Peter Rehberg)
9.Western Dub (Remixed by Seth Manchester)
10.Hallow Hollow (Remixed by Lingua Ignota)
******************************
Total playing time: 52:14



Extended info
Line - up:

Lee Buford - Drums (Dead Times, Lorna Doom, Narrow Pathe, ex-Class of Eighty Four, ex-Everyone Asked About You)
Chip King - Guitars, Vocals (Narrow Pathe, Siege Engine, ex-Full Service Quartet, ex-Generation of Vipers, ex-Hundred Years War)

(IMG:https://www.metal-archives.com/images/5/1/6/8/51680_photo.jpg?2454)


Technical info
(IMG:http://metalarea.org/images/spectrogram/2019_Oct/8a4e6e7329da142667239c29e5f26296.png)
Input File: 01. A Curse (Remixed by Moss Of Aura).mp3
Channels : 2
Sample Rate : 44100
Precision : 16-bit
Duration : 00:04:22.84 = 11591024 samples = 19712.6 CDDA sectors
File Size : 10.6M
Bit Rate : 322k
Sample Encoding: MPEG audio (layer I, II or III)
Comments :
Title=A Curse (Remixed by Moss Of Aura)
Artist=The Body
Album=Remixed
Tracknumber=1
Year=2019
Genre=Experimental Sludge/Doom Metal/Noise/Industrial



Register


Go to the top of the page
  Insert nick Quick quote
+Quote Post
 
Start new topic
Replies (1 - 1)
post Oct 14 2019, 07:03:05
Post #2

Маньяк
**********
Group: Металариец
Posts: 1,041
Releases: 14
On Forums: 11 years 3 weeks
Thanks: 861 time(s)
Russian Federation


ЦИТАТА(Necrokilldozer @ Oct 11 2019, 20:18:19) *
5.Off Script (Remixed by Moor Mother)

Крутой трек, с репчиком - (IMG:style_emoticons/default/20.gif)
Go to the top of the page
  Insert nick Quick quote
+Quote Post

Reply to this topicStart new topic
1 User(s) are reading this topic (1 Guests and 0 Anonymous Users)
0 Members:

 



- Lo-Fi Version Support form
Copyrights and abuse reports form
Time is now: 21st October 2019 - 01:38:06