Welcome Guest ( Log In | Register )

> Releases Upload / Добавление релизов

Добавить релиз тут / Click here to add release
Рекомендованные обменники / Recommended file shares

> Klaw - Lightcrusher (2019), Thrash Metal
post Oct 11 2019, 18:18:39
Post #1

Правь статус, ####!111
**************
Group: Металариец
Posts: 19,079
Releases: 12876
From: Г.Харьков
On Forums: 7 years 5 months
Thanks: 221008 time(s)
Unknown


(IMG:http://metalarea.org/images/audiocovers/2019_Oct/acov_tid328685_thumb.jpg)

*Artist: Klaw
*Album: Lightcrusher
*Year: 2019
*Genre: Thrash Metal
*Country: Switzerland (IMG:http://metalarea.org/forum/style_images/flags/Switzerland.png)
*Format: mp3@CBR320kbps
*Size: 122MB

Tracklist:
1. The Oreinoi 04:24
2. Hurt People 04:34
3. LightCrusher 05:40
4. Age of Fools 04:23
5. 1000 Places 04:24
6. Look at Me 05:04
7. They Feel Pain 04:11
8. Sweet Revenge 06:06
9. Exoskeleton 04:05
10. No Regrets 05:21
11. The One 05:04
12. Killing in the Name of (Bonus) 04:28
******************************
Total playing time: 57:44



Extended info
Dani Bürkli Bass
See also: Contorsion, Grin
Simon Freiburghaus Guitars
See also: Contorsion, Abgrund, Acoustic Devils, Rats, Suspiria, Zellzius, ex-Hellvetica
Reto Bachmann Drums (2017-present)
See also: Expenzer, ex-Pigskin, ex-Marooned
Chasper Wanner Guitars (2017-present)
See also: Poltergeist, Chasper Wanner Quartet, Eddie's Beast, Outmars, ex-Driving Force
Lucie Werlen Vocals (lead), Lyrics (2017-present)
See also: ex-Suborned, ex-Dark Zodiak


Technical info
(IMG:http://metalarea.org/images/spectrogram/2019_Oct/b8d1503da85bb5f0278cce255313d350.png)
Input File: 04. 1000 Places.mp3
Channels : 2
Sample Rate : 44100
Precision : 16-bit
Duration : 00:04:24.12 = 11647472 samples = 19808.6 CDDA sectors
File Size : 10.6M
Bit Rate : 322k
Sample Encoding: MPEG audio (layer I, II or III)
Comments :
Title=1000 Places
Artist=Klaw
Album=Lightcrusher
Tracknumber=4/12
Year=2019
Genre=9
Discnumber=1/1



Register


Go to the top of the page
  Insert nick Quick quote
+Quote Post
 
Start new topic
Replies (1 - 3)
post Oct 12 2019, 16:16:19
Post #2

Правь статус, ####!111
**************
Group: Металариец
Posts: 19,079
Releases: 12876
From: Г.Харьков
On Forums: 7 years 5 months
Thanks: 221008 time(s)
Unknown


Cloud Mail 320
Register


Go to the top of the page
  Insert nick Quick quote
+Quote Post
post Oct 12 2019, 21:08:20
Post #3

Шесть Литров
******
Group: Металариец
Posts: 677
Releases: 0
From: Одесса-мама
On Forums: 10 years 9 months
Thanks: 213 time(s)
Ukraine


Оцень на пасиба!
(IMG:style_emoticons/default/metaler.gif)
Go to the top of the page
  Insert nick Quick quote
+Quote Post
post Oct 12 2019, 21:21:41
Post #4

MDM-Thrash Metal
**************
Group: Металариец
Posts: 8,889
Releases: 681
From: Одесса
On Forums: 12 years 2 months
Thanks: 18852 time(s)
Ukraine


Как по мне - так хевистый треш, или трешевый хеви, но жесткости не хватает вообще!
Go to the top of the page
  Insert nick Quick quote
+Quote Post

Reply to this topicStart new topic
1 User(s) are reading this topic (1 Guests and 0 Anonymous Users)
0 Members:

 



- Lo-Fi Version Support form
Copyrights and abuse reports form
Time is now: 21st October 2019 - 00:52:05