Welcome Guest ( Log In | Register )

> Releases Upload / Добавление релизов

Добавить релиз тут / Click here to add release
Рекомендованные обменники / Recommended file shares

 
Reply to this topicStart new topic
> Bersærk - Live I Pumpehuset [live] (2019), Stoner Metal/Rock
post Oct 11 2019, 18:46:23
Post #1

Каждое ваше "Спасибо" помогает мне понять, что я делаю новости не напрасно.
**************
Group: Металариец
Posts: 2,003
Releases: 1758
From: Одесса
On Forums: 11 years 4 months
Thanks: 15233 time(s)
Ukraine


(IMG:http://metalarea.org/images/audiocovers/2019_Oct/acov_tid328686_thumb.jpg)

*Artist: Bersærk
*Album: Live I Pumpehuset [live]
*Year: 2019
*Genre: Stoner Metal/Rock
*Country: Denmark (IMG:http://metalarea.org/forum/style_images/flags/Denmark.png)
*Format: mp3@CBR320kbps
*Size: 147MB

Tracklist:
1.De glemte
2.Kampånd
3.Nordenvind
4.Skyggeland
5.Mørke
6.Intet glemt, før alt er brændt
7.Fimbuls børn
8.Niddingesang
9.År nul
10.Himlen skælver
11.Tordensol
12.Nattesyn
13.Solens folk
******************************
Total playing time: 1:06:40



Extended info
Line - up:

Bastian Popp - Bass
Simon Meiner - Drums
Lars Evers - Guitars
Casper Roland Popp - Vocals

(IMG:https://f4.bcbits.com/img/0014042086_10.jpg)


Technical info
(IMG:http://metalarea.org/images/spectrogram/2019_Oct/bd110393ef086bc63c3a7562ffa2a45a.png)
Input File: 11. Tordensol (Live).mp3
Channels : 2
Sample Rate : 44100
Precision : 16-bit
Duration : 00:05:29.09 = 14512649 samples = 24681.4 CDDA sectors
File Size : 13.2M
Bit Rate : 321k
Sample Encoding: MPEG audio (layer I, II or III)
Comments :
Title=Tordensol (Live)
Artist=Bersærk
Album=Live i Pumpehuset (Live)
Tracknumber=11
Year=2019
Genre=Stoner Metal/Rock



Register


Thanks:
Go to the top of the page
  Insert nick Quick quote
+Quote Post

Reply to this topicStart new topic
1 User(s) are reading this topic (1 Guests and 0 Anonymous Users)
0 Members:

 



- Lo-Fi Version Support form
Copyrights and abuse reports form
Time is now: 21st October 2019 - 01:48:46