Welcome Guest ( Log In | Register )

> Releases Upload / Добавление релизов

Добавить релиз тут / Click here to add release
Рекомендованные обменники / Recommended file shares

> Morthifera - Apócrifo (2019), Thrash Metal
post Oct 11 2019, 19:22:18
Post #1

Правь статус, ####!111
**************
Group: Металариец
Posts: 19,069
Releases: 12855
From: Г.Харьков
On Forums: 7 years 5 months
Thanks: 220755 time(s)
Unknown


(IMG:http://metalarea.org/images/audiocovers/2019_Oct/acov_tid328688_thumb.jpg)

*Artist: Morthifera
*Album: Apócrifo
*Year: 2019
*Genre: Thrash Metal
*Country: Argentina (IMG:http://metalarea.org/forum/style_images/flags/Argentina.png)
*Format: mp3@CBR320kbps
*Size: 97MB

Tracklist:
1. Terapia de Represión 04:42
2. Norte Inmortal 05:29
3. Verso Pollice 05:21
4. Analepsis 08:19
5. Núcleo 01:50
6. Anatomía de la Venganza 07:37
7. Epifanía 02:15
8. Apostasía 03:59
9. Odio Heredado 05:57
******************************
Total playing time: 45:29



Extended info
Cristian Romero Drums (2010-present)
See also: Malicia, ex-Reactor
Lucas Bravo Guitars, Vocals (backing) (2010-present)
See also: Lethal, Malicia
Daniel Perez Vocals (2010-present)
See also: ex-Trauma
Heber Rojas Bass (2011-present)
See also: Serpentor (live), Destroy, ex-Bestial Malevolencia, ex-Crueliter, ex-Del Infierno, ex-Mortuario
Lucas coronel Guitars (2015-present)
See also: Diebrator



Technical info
(IMG:http://metalarea.org/images/spectrogram/2019_Oct/3b4367d36af40d3e9b7a819d06f78df9.png)
Input File: 04. Analepsis.mp3
Channels : 2
Sample Rate : 44100
Precision : 16-bit
Duration : 00:08:19.10 = 22010310 samples = 37432.5 CDDA sectors
File Size : 20.1M
Bit Rate : 322k
Sample Encoding: MPEG audio (layer I, II or III)
Comments :
Title=Analepsis
Artist=Morthifera
Album=Apócrifo
Tracknumber=4/9
Genre=9
Discnumber=1/1



Register


Go to the top of the page
  Insert nick Quick quote
+Quote Post
 
Start new topic
Replies (1 - 2)
post Oct 12 2019, 16:19:34
Post #2

Правь статус, ####!111
**************
Group: Металариец
Posts: 19,069
Releases: 12855
From: Г.Харьков
On Forums: 7 years 5 months
Thanks: 220755 time(s)
Unknown


Cloud Mail 320
Register


Go to the top of the page
  Insert nick Quick quote
+Quote Post
post Oct 13 2019, 01:06:21
Post #3

Group: Дух
Posts: 4
Releases: 0
From: argentina
On Forums: 1 year 4 months
Thanks: 0 time(s)
Argentina


(IMG:style_emoticons/default/metaler.gif)
Go to the top of the page
  Insert nick Quick quote
+Quote Post

Reply to this topicStart new topic
1 User(s) are reading this topic (1 Guests and 0 Anonymous Users)
0 Members:

 



- Lo-Fi Version Support form
Copyrights and abuse reports form
Time is now: 20th October 2019 - 00:13:24