Welcome Guest ( Log In | Register )

> Releases Upload / Добавление релизов

Добавить релиз тут / Click here to add release
Рекомендованные обменники / Recommended file shares

 
Reply to this topicStart new topic
> Excarnate - Self-Titled [ep] (2019), Metalcore
post Oct 11 2019, 19:24:33
Post #1

Маньяк
**********
Group: Металариец
Posts: 1,320
Releases: 119
On Forums: 10 years 2 months
Thanks: 997 time(s)
Kazakhstan


(IMG:https://metalarea.org/images/audiocovers/2019_Oct/acov_tid328689_thumb.jpg)

*Artist: Excarnate
*Album: Self-Titled [ep]
*Year: 2019
*Genre: Metalcore
*Country: Australia (IMG:https://metalarea.org/forum/style_images/flags/Australia.png)
*Format: mp3@VBR246kbps
*Size: 41MB

Tracklist:
1.Rot 01:20
2.Honour Amongst Thieves 02:30
3.Penance Due 03:04
4.History of Lies 02:16
5.God Complex 02:58
6.Frail Husk 02:45
7.Human Plight 02:54
******************************
Total playing time: 17:47



Technical info
(IMG:https://metalarea.org/images/spectrogram/2019_Oct/b3d73b10d16f3ff900be7b2e0ecee82b.png)
Input File: 3.Penance Due.mp3
Channels : 2
Sample Rate : 44100
Precision : 16-bit
Duration : 00:03:04.62 = 8141610 samples = 13846.3 CDDA sectors
File Size : 7.38M
Bit Rate : 320k
Sample Encoding: MPEG audio (layer I, II or III)



Register


Go to the top of the page
  Insert nick Quick quote
+Quote Post

Reply to this topicStart new topic
1 User(s) are reading this topic (1 Guests and 0 Anonymous Users)
0 Members:

 



- Lo-Fi Version Support form
Copyrights and abuse reports form
Time is now: 21st October 2019 - 01:12:25