Welcome Guest ( Log In | Register )

> Releases Upload / Добавление релизов

Добавить релиз тут / Click here to add release
Рекомендованные обменники / Recommended file shares

> Nephilim's Noose - Rites Of A Death Merchant (2019), Doom/Death Metal
post Oct 11 2019, 20:01:14
Post #1

Правь статус, ####!111
**************
Group: Металариец
Posts: 19,079
Releases: 12876
From: Г.Харьков
On Forums: 7 years 5 months
Thanks: 221014 time(s)
Unknown


(IMG:http://metalarea.org/images/audiocovers/2019_Oct/acov_tid328690_thumb.jpg)

*Artist: Nephilim's Noose
*Album: Rites Of A Death Merchant
*Year: 2019
*Genre: Doom/Death Metal
*Country: United States (IMG:http://metalarea.org/forum/style_images/flags/United%20States.png)
*Format: mp3@CBR320kbps
*Size: 118MB

Tracklist:
01. Bloodlet // With Hammers & Horns
02. Doom // Oath
03. Vis Major // Law of Nature
04. Execution // Resolution
05. Chaos // Writ
******************************
Total playing time: 51:22




Extended info


Technical info
(IMG:http://metalarea.org/images/spectrogram/2019_Oct/2702f0bb13a0d3e8d1bec91df3e06c2c.png)
Input File: 03 - Vis Major __ Law of Nature.mp3
Channels : 2
Sample Rate : 44100
Precision : 16-bit
Duration : 00:11:58.12 = 31669048 samples = 53858.9 CDDA sectors
File Size : 28.8M
Bit Rate : 321k
Sample Encoding: MPEG audio (layer I, II or III)
Comments :
Title=Vis Major // Law of Nature
Artist=Nephilim's Noose
Album=Rites of a Death Merchant
Tracknumber=3
Year=2019-10-11
Genre=Metal
Discnumber=1



Register


Go to the top of the page
  Insert nick Quick quote
+Quote Post
 
Start new topic
Replies (1 - 2)
post Oct 12 2019, 20:19:01
Post #2

hearer & reader
**************
Group: Металариец
Posts: 8,131
Releases: 105
From: Moscow
On Forums: 12 years 1 month
Thanks: 7599 time(s)
Russian Federation


NYP -
Go to the top of the page
  Insert nick Quick quote
+Quote Post
post Oct 12 2019, 22:03:15
Post #3

####!111
**************
Group: Металариец
Posts: 3,750
Releases: 125
From: The Mountain Of DOOM
On Forums: 12 years 1 week
Thanks: 5267 time(s)
Russian Federation


Disembowelment без кислоты
Go to the top of the page
  Insert nick Quick quote
+Quote Post

Reply to this topicStart new topic
1 User(s) are reading this topic (1 Guests and 0 Anonymous Users)
0 Members:

 



- Lo-Fi Version Support form
Copyrights and abuse reports form
Time is now: 21st October 2019 - 01:35:11