Welcome Guest ( Log In | Register )

> Releases Upload / Добавление релизов

Добавить релиз тут / Click here to add release
Рекомендованные обменники / Recommended file shares

> Nativo Poder - Nativo Poder (2019), Groove/Thrash Metal
post Oct 11 2019, 20:15:54
Post #1

Правь статус, ####!111
**************
Group: Металариец
Posts: 19,079
Releases: 12876
From: Г.Харьков
On Forums: 7 years 5 months
Thanks: 221008 time(s)
Unknown


(IMG:http://metalarea.org/images/audiocovers/2019_Oct/acov_tid328691_thumb.jpg)

*Artist: Nativo Poder
*Album: Nativo Poder
*Year: 2019
*Genre: Groove/Thrash Metal
*Country: Argentina (IMG:http://metalarea.org/forum/style_images/flags/Argentina.png)
*Format: mp3@CBR320kbps
*Size: 116MB

Tracklist:
1. Barrio De Rock
2. No Ceder
3. Fuera Del Sistema
4. Donde Fui Nacido
5. Jamas
6. Donde Existe Libertad
7. Sobre Mi
8. Esta Noche No
9. De Humano Derrotado
10. Desafiando La Realidad
11. Nativo Poder
12. Solo Un Minuto Mas
******************************
Total playing time: 50:03



Extended info
Rolo Costamagna en bajo
Gustavo "Tanque" Bustamante en bateria
José Benítez guitarra y voz


Technical info
(IMG:http://metalarea.org/images/spectrogram/2019_Oct/09810563f44ca1f666162e224d9336e0.png)
Input File: 04 - Donde Fui Nacido.mp3
Channels : 2
Sample Rate : 44100
Precision : 16-bit
Duration : 00:03:54.38 = 10336290 samples = 17578.7 CDDA sectors
File Size : 9.55M
Bit Rate : 326k
Sample Encoding: MPEG audio (layer I, II or III)
Comments :
Title=Donde Fui Nacido
Artist=Nativo Poder
Album=Nativo Poder
Tracknumber=4
Year=2019



Register


Go to the top of the page
  Insert nick Quick quote
+Quote Post
 
Start new topic
Replies (1 - 1)
post Oct 12 2019, 16:25:01
Post #2

Правь статус, ####!111
**************
Group: Металариец
Posts: 19,079
Releases: 12876
From: Г.Харьков
On Forums: 7 years 5 months
Thanks: 221008 time(s)
Unknown


Cloud Mail 320
Register


Go to the top of the page
  Insert nick Quick quote
+Quote Post

Reply to this topicStart new topic
1 User(s) are reading this topic (1 Guests and 0 Anonymous Users)
0 Members:

 



- Lo-Fi Version Support form
Copyrights and abuse reports form
Time is now: 21st October 2019 - 00:49:10