Welcome Guest ( Log In | Register )

> Releases Upload / Добавление релизов

Добавить релиз тут / Click here to add release
Рекомендованные обменники / Recommended file shares

 
Reply to this topicStart new topic
> Vessel Of Light - Thy Serpent Rise (2019), Doom Metal
post Oct 11 2019, 21:01:29
Post #1

Правь статус, ####!111
**************
Group: Металариец
Posts: 19,079
Releases: 12876
From: Г.Харьков
On Forums: 7 years 5 months
Thanks: 221014 time(s)
Unknown


(IMG:http://metalarea.org/images/audiocovers/2019_Oct/acov_tid328692_thumb.jpg)

*Artist: Vessel Of Light
*Album: Thy Serpent Rise
*Year: 2019
*Genre: Doom Metal
*Country: United States (IMG:http://metalarea.org/forum/style_images/flags/United%20States.png)
*Format: mp3@CBR320kbps
*Size: 77MB

Tracklist:
1. Thy Serpent Rise 01:16
2. Abandon Life 02:18
3. Meet and Bone 03:14
4. Urge to Kill 03:00
5. Rush of Blood 04:23
6. Skin in the Game 01:24
7. Save My Soul 03:52
8. Bleed Into the Night 02:34
9. Eternal Sleep 03:30
10. Hello Darkness 01:23
11. Decomposing Mental Health 03:35
12. After Death 03:48
******************************
Total playing time: 34:17



Extended info
Dan Lorenzo Guitars, Bass
See also: Dan Lorenzo, Hades, ex-Non-Fiction, ex-The Cursed
Nathan Opposition Vocals, Drums
See also: Ancient VVisdom


Technical info
(IMG:http://metalarea.org/images/spectrogram/2019_Oct/7a7a4810169e96af4e50813af7a0c7d7.png)
Input File: 04. Urge to Kill.mp3
Channels : 2
Sample Rate : 44100
Precision : 16-bit
Duration : 00:03:00.96 = 7980468 samples = 13572.2 CDDA sectors
File Size : 7.32M
Bit Rate : 324k
Sample Encoding: MPEG audio (layer I, II or III)
Comments :
Title=Urge to Kill
Artist=Vessel of Light
Album=Thy Serpent Rise
Tracknumber=4/12
Year=2019
Genre=9
Discnumber=1/1



Register


Go to the top of the page
  Insert nick Quick quote
+Quote Post

Reply to this topicStart new topic
1 User(s) are reading this topic (1 Guests and 0 Anonymous Users)
0 Members:

 



- Lo-Fi Version Support form
Copyrights and abuse reports form
Time is now: 21st October 2019 - 01:45:49