Welcome Guest ( Log In | Register )

> Releases Upload / Добавление релизов

Добавить релиз тут / Click here to add release
Рекомендованные обменники / Recommended file shares

 
Reply to this topicStart new topic
> Kombenk - Scenery Of Slaughter (2019), Brutal Death Metal
post Oct 11 2019, 21:31:26
Post #1

Правь статус, ####!111
**************
Group: Металариец
Posts: 19,069
Releases: 12855
From: Г.Харьков
On Forums: 7 years 5 months
Thanks: 220755 time(s)
Unknown


(IMG:http://metalarea.org/images/audiocovers/2019_Oct/acov_tid328694_thumb.jpg)

*Artist: Kombenk
*Album: Scenery Of Slaughter
*Year: 2019
*Genre: Brutal Death Metal
*Country: Indonesia (IMG:http://metalarea.org/forum/style_images/flags/Indonesia.png)
*Format: mp3@CBR320kbps
*Size: 76MB

Tracklist:
1. Intro 02:34 instrumental
2. Habitual Mutilation 02:58
3. Brutal Liar Membabi Buta 03:19
4. Aborsi 03:31
5. Scenery of Slaughter 04:02
6. Sape' 01:31 instrumental
7. Human Trafficking 03:57
8. Revenge of Torture 04:04
9. Virginity Killer 02:37
10. Bunuh Diri 03:52
******************************
Total playing time: 32:25



Extended info
Wahyu Rusak Bass
Ferdy Drums
Agus Kombenk Guitars
Baba Vatality Vocals


Technical info
(IMG:http://metalarea.org/images/spectrogram/2019_Oct/2311efe2182a403fb8981272e919f8c3.png)
Input File: 05 Scenery Of Slaughter.mp3
Channels : 2
Sample Rate : 44100
Precision : 16-bit
Duration : 00:04:02.41 = 10690105 samples = 18180.5 CDDA sectors
File Size : 9.90M
Bit Rate : 327k
Sample Encoding: MPEG audio (layer I, II or III)
Comments :
Title=Scenery Of Slaughter
Artist=Kombenk
Album=Scenery Of Slaughter
Tracknumber=5
Year=2019
Genre=Slamming Brutal Death Metal
Discnumber=1



Register


Go to the top of the page
  Insert nick Quick quote
+Quote Post

Reply to this topicStart new topic
1 User(s) are reading this topic (1 Guests and 0 Anonymous Users)
0 Members:

 



- Lo-Fi Version Support form
Copyrights and abuse reports form
Time is now: 20th October 2019 - 00:10:10