Welcome Guest ( Log In | Register )

> Releases Upload / Добавление релизов

Добавить релиз тут / Click here to add release
Рекомендованные обменники / Recommended file shares

 
Reply to this topicStart new topic
> Intracerebral Hemorrhage - The Fall Of Idols (2019), Brutal Death Metal
post Oct 11 2019, 21:49:12
Post #1

Правь статус, ####!111
**************
Group: Металариец
Posts: 19,079
Releases: 12876
From: Г.Харьков
On Forums: 7 years 5 months
Thanks: 221009 time(s)
Unknown


(IMG:http://metalarea.org/images/audiocovers/2019_Oct/acov_tid328695_thumb.jpg)

*Artist: Intracerebral Hemorrhage
*Album: The Fall Of Idols
*Year: 2019
*Genre: Brutal Death Metal
*Country: Indonesia (IMG:http://metalarea.org/forum/style_images/flags/Indonesia.png)
*Format: mp3@CBR320kbps
*Size: 81MB

Tracklist:
1. Codexcigas
2. The Plague
3. Demon
4. LLLL
5. Evil = Live
6. Rot
7. Wound
8. Altar of Flesh
9. Decomposed
10. Grey Blood
******************************
Total playing time: 35:04



Extended info
Yazid Al-Syafi'i Drums
Guntur "Kajhex" Aji Guitars, Bass
Faisal "Contak" Aditya Vocals


Technical info
(IMG:http://metalarea.org/images/spectrogram/2019_Oct/c8665f0e884cdc3cc216b8d64fa568b9.png)
Input File: 03 Demon.mp3
Channels : 2
Sample Rate : 44100
Precision : 16-bit
Duration : 00:03:38.16 = 9620988 samples = 16362.2 CDDA sectors
File Size : 8.79M
Bit Rate : 322k
Sample Encoding: MPEG audio (layer I, II or III)
Comments :
Title=Demon
Artist=Intracerebral Hemorrhage
Album=The Fall Of Idols
Tracknumber=3
Year=2019
Genre=Slamming Brutal Death Metal
Discnumber=1



Register


Go to the top of the page
  Insert nick Quick quote
+Quote Post

Reply to this topicStart new topic
1 User(s) are reading this topic (1 Guests and 0 Anonymous Users)
0 Members:

 



- Lo-Fi Version Support form
Copyrights and abuse reports form
Time is now: 21st October 2019 - 01:09:28