Welcome Guest ( Log In | Register )

> Gruzja - Jeszcze Nie Mamy Na Was Pomysłu (2019), Black Metal
post Oct 11 2019, 22:12:36
Post #1

Правь статус, ####!111
**************
Group: Металариец
Posts: 4,376
Releases: 1234
From: Brazil
On Forums: 8 years 4 months
Thanks: 46263 time(s)
Brazil


(IMG:https://metalarea.org/images/audiocovers/2019_Oct/acov_tid328696_thumb.jpg)

*Artist: Gruzja
*Album: Jeszcze Nie Mamy Na Was Pomysłu
*Year: 2019
*Genre: Black Metal
*Country: Poland (IMG:https://metalarea.org/forum/style_images/flags/Poland.png)
*Format: mp3@CBR320kbps
*Size: 94MB

Tracklist:
1. Jeszcze nie mamy na was pomysłu I 03:49
2. Królowie zwierząt 03:55
3. 800 zł 03:47
4. Jeszcze nie mamy na was pomysłu II 04:12
5. Kamera Dionizosa 04:17
6. Masz rozmienić 03:03
7. Niedostatkiem w piekny rejs 05:10
8. Grues 03:33
9. Jeszcze nie mamy na was pomysłu III 08:45
******************************
Total playing time: 40:31



Extended info
Godz ov War Productions


Current lineup

Bartosz Lichołap - Drums
See also: Mentor, ex-Thaw, ex-Searching For Calm

Artur Rumiński - Guitars
See also: Furia, Mentor, Thaw, AR, Arrm, Moral Breach, Sun for Miles, Zgliszcza, ex-Guantanamo Party Program (live), ex-Bad Side of Social Existence, ex-Bhimal, ex-Caught in a Trap, ex-Nyshynga, ex-Shaping the Random, ex-Void 1, ex-wSzaniec, ex-Tides from Nebula (live)

Stawrogin - Vocals
See also: Biesy, Massemord, Odraza, Totenmesse, ex-Crawling Death, ex-Outre (live), ex-Szepter

PR - Vocals
See also: Biesy

Limbo - Vocals

Dominik - Vocals (2019-present)
See also: Licho, Koniec Pola


Technical info
(IMG:https://metalarea.org/images/spectrogram/2019_Oct/4f204203f9b97976f4a5e18f20ceb91f.png)
Input File: 02 Królowie zwierząt.mp3
Channels : 2
Sample Rate : 44100
Precision : 16-bit
Duration : 00:03:55.09 = 10367381 samples = 17631.6 CDDA sectors
File Size : 9.40M
Bit Rate : 320k
Sample Encoding: MPEG audio (layer I, II or III)
Comments :
Title=Królowie zwierząt
Artist=Gruzja
Album=Jeszcze Nie Mamy Na Was Pomysłu
Tracknumber=2
Year=2019



Register


Go to the top of the page
  Insert nick Quick quote
+Quote Post
 
Start new topic
Replies (1 - 3)
post Oct 12 2019, 23:35:51
Post #2

стакан. просто стакан.
**************
Group: Металариец
Posts: 3,763
Releases: 0
On Forums: 4 years 4 months
Thanks: 2451 time(s)
Unknown


по музыке
ЦИТАТА(lestllk @ 12th October 2019 - 02:12:36) *
Furia

ЦИТАТА(lestllk @ 12th October 2019 - 02:12:36) *
Licho

смешать и пить не закусывая. ну вы поняли.
слушаю и не могу понять, толи что то в самом деле нетривиальное наваяли, толи хрень лютая.
склоняюсь к первому варианту.
Go to the top of the page
  Insert nick Quick quote
+Quote Post
post Oct 14 2019, 17:18:56
Post #3

Group: Подсевший
Posts: 13
Releases: 0
On Forums: 7 months 2 weeks
Thanks: 2 time(s)
Unknown


Польские весельчаки с новым альбомом. После первого прослушивания и скорее всего последнего, я пришел к мнению что все таки, какая то изюминка в их музыке есть, но это наверное все же не мое, думаю тем кто любит употреблять Lugubrum в виде саундтрека к своим попойкам и прочим непотребствам эти поляки тоже понравятся


Thanks:
(1) Brann,
Go to the top of the page
  Insert nick Quick quote
+Quote Post
post Nov 12 2019, 19:01:00
Post #4

кручу наждак
**************
Group: Металариец
Posts: 4,440
Releases: 102
From: Самара
On Forums: 10 years 3 weeks
Thanks: 3560 time(s)
Russian Federation


Етить, чуть не пропустил такой брильянт!
Поляки вообще в этом году дичайше радуют (к mgle это, само собой, не относится), например сабж - уже третий или четвертый железный кандидат в топ года.
Go to the top of the page
  Insert nick Quick quote
+Quote Post

Reply to this topicStart new topic
1 User(s) are reading this topic (1 Guests and 0 Anonymous Users)
0 Members:

 



- Lo-Fi Version Support form
Copyrights and abuse reports form
Time is now: 4th June 2020 - 11:14:00