Welcome Guest ( Log In | Register )

> Releases Upload / Добавление релизов

Добавить релиз тут / Click here to add release
Рекомендованные обменники / Recommended file shares

> Gruzja - Jeszcze Nie Mamy Na Was Pomysłu (2019), Black Metal
post Oct 11 2019, 22:12:36
Post #1

Правь статус, ####!111
**************
Group: Металариец
Posts: 3,927
Releases: 978
From: Brazil
On Forums: 7 years 8 months
Thanks: 36429 time(s)
Brazil


(IMG:https://metalarea.org/images/audiocovers/2019_Oct/acov_tid328696_thumb.jpg)

*Artist: Gruzja
*Album: Jeszcze Nie Mamy Na Was Pomysłu
*Year: 2019
*Genre: Black Metal
*Country: Poland (IMG:https://metalarea.org/forum/style_images/flags/Poland.png)
*Format: mp3@CBR320kbps
*Size: 94MB

Tracklist:
1. Jeszcze nie mamy na was pomysłu I 03:49
2. Królowie zwierząt 03:55
3. 800 zł 03:47
4. Jeszcze nie mamy na was pomysłu II 04:12
5. Kamera Dionizosa 04:17
6. Masz rozmienić 03:03
7. Niedostatkiem w piekny rejs 05:10
8. Grues 03:33
9. Jeszcze nie mamy na was pomysłu III 08:45
******************************
Total playing time: 40:31



Extended info
Godz ov War Productions


Current lineup

Bartosz Lichołap - Drums
See also: Mentor, ex-Thaw, ex-Searching For Calm

Artur Rumiński - Guitars
See also: Furia, Mentor, Thaw, AR, Arrm, Moral Breach, Sun for Miles, Zgliszcza, ex-Guantanamo Party Program (live), ex-Bad Side of Social Existence, ex-Bhimal, ex-Caught in a Trap, ex-Nyshynga, ex-Shaping the Random, ex-Void 1, ex-wSzaniec, ex-Tides from Nebula (live)

Stawrogin - Vocals
See also: Biesy, Massemord, Odraza, Totenmesse, ex-Crawling Death, ex-Outre (live), ex-Szepter

PR - Vocals
See also: Biesy

Limbo - Vocals

Dominik - Vocals (2019-present)
See also: Licho, Koniec Pola


Technical info
(IMG:https://metalarea.org/images/spectrogram/2019_Oct/4f204203f9b97976f4a5e18f20ceb91f.png)
Input File: 02 Królowie zwierząt.mp3
Channels : 2
Sample Rate : 44100
Precision : 16-bit
Duration : 00:03:55.09 = 10367381 samples = 17631.6 CDDA sectors
File Size : 9.40M
Bit Rate : 320k
Sample Encoding: MPEG audio (layer I, II or III)
Comments :
Title=Królowie zwierząt
Artist=Gruzja
Album=Jeszcze Nie Mamy Na Was Pomysłu
Tracknumber=2
Year=2019



Register


Go to the top of the page
  Insert nick Quick quote
+Quote Post
 
Start new topic
Replies (1 - 6)
post Oct 12 2019, 18:02:19
Post #2

Правь статус, ####!111
**************
Group: Металариец
Posts: 2,681
Releases: 8
From: Dnipro
On Forums: 11 years 3 months
Thanks: 834 time(s)
Ukraine


польская ГРУЗИЯ (IMG:style_emoticons/default/13.gif) , на гитаре Rumiński (IMG:style_emoticons/default/15.gif)


Thanks:
Go to the top of the page
  Insert nick Quick quote
+Quote Post
post Oct 12 2019, 20:06:29
Post #3

за бибу.ЗА БОБУ.
**************
Group: Металариец
Posts: 3,054
Releases: 0
On Forums: 3 years 8 months
Thanks: 1866 time(s)
Unknown


а состав то состав какой, забираю.

ЦИТАТА(isvili @ 12th October 2019 - 22:02:19) *
польская ГРУЗИЯ , на гитаре Rumiński

шутки как всегда за 299 на грани фола.
Go to the top of the page
  Insert nick Quick quote
+Quote Post
post Oct 12 2019, 20:08:31
Post #4

ретроград
**************
Group: Металариец
Posts: 4,852
Releases: 178
On Forums: 12 years 4 months
Thanks: 7135 time(s)
Vatican City


Скорее всего опечатка. Судя по картинке это - Druzja


Thanks:
(1) russ777,
Go to the top of the page
  Insert nick Quick quote
+Quote Post
post Oct 12 2019, 23:31:24
Post #5

Шесть Литров
******
Group: Металариец
Posts: 627
Releases: 0
From: South Of Heaven
On Forums: 12 years 2 months
Thanks: 281 time(s)
Ukraine


ЦИТАТА(Kazoth @ 12th October 2019 - 22:08:31) *
Судя по картинке это - Druzja

(IMG:style_emoticons/default/17.gif) И к тому-же эти Druzja имеют (опять таки,судя по картинке) довольно необычный корпспэйнт....радикально чёрный... (IMG:style_emoticons/default/17.gif)
Go to the top of the page
  Insert nick Quick quote
+Quote Post
post Oct 12 2019, 23:35:51
Post #6

за бибу.ЗА БОБУ.
**************
Group: Металариец
Posts: 3,054
Releases: 0
On Forums: 3 years 8 months
Thanks: 1866 time(s)
Unknown


по музыке
ЦИТАТА(lestllk @ 12th October 2019 - 02:12:36) *
Furia

ЦИТАТА(lestllk @ 12th October 2019 - 02:12:36) *
Licho

смешать и пить не закусывая. ну вы поняли.
слушаю и не могу понять, толи что то в самом деле нетривиальное наваяли, толи хрень лютая.
склоняюсь к первому варианту.
Go to the top of the page
  Insert nick Quick quote
+Quote Post
post Oct 14 2019, 17:18:56
Post #7

Group: Подсевший
Posts: 12
Releases: 0
On Forums: 5 days 6 hours
Thanks: 2 time(s)
Unknown


Польские весельчаки с новым альбомом. После первого прослушивания и скорее всего последнего, я пришел к мнению что все таки, какая то изюминка в их музыке есть, но это наверное все же не мое, думаю тем кто любит употреблять Lugubrum в виде саундтрека к своим попойкам и прочим непотребствам эти поляки тоже понравятся


Thanks:
(1) Brann,
Go to the top of the page
  Insert nick Quick quote
+Quote Post

Reply to this topicStart new topic
1 User(s) are reading this topic (1 Guests and 0 Anonymous Users)
0 Members:

 



- Lo-Fi Version Support form
Copyrights and abuse reports form
Time is now: 19th October 2019 - 22:50:28