Welcome Guest ( Log In | Register )

> Releases Upload / Добавление релизов

Добавить релиз тут / Click here to add release
Рекомендованные обменники / Recommended file shares

 
Reply to this topicStart new topic
> Soul Of Slamming - Rekonstruksi Dogma (2019), Brutal Death Metal
post Oct 11 2019, 22:13:30
Post #1

Правь статус, ####!111
**************
Group: Металариец
Posts: 19,102
Releases: 12898
From: Г.Харьков
On Forums: 7 years 5 months
Thanks: 221307 time(s)
Unknown


(IMG:http://metalarea.org/images/audiocovers/2019_Oct/acov_tid328697_thumb.jpg)

*Artist: Soul Of Slamming
*Album: Rekonstruksi Dogma
*Year: 2019
*Genre: Brutal Death Metal
*Country: Indonesia (IMG:http://metalarea.org/forum/style_images/flags/Indonesia.png)
*Format: mp3@CBR320kbps
*Size: 56MB

Tracklist:
01. Veiled The Thruth
02. Gelap Tak Bernyawa
03. Gelombang Kematian
04. Ilustrasi Peran Pembunuh
05. Penguasa Gila
06. Betrayal
07. Dogma
08. Halusinasi
******************************
Total playing time: 24:01



Extended info
Bobo Bass
Vivi Drums
Ricko Guitars
Deny Vocals
See also: ex-Sacred


Technical info
(IMG:http://metalarea.org/images/spectrogram/2019_Oct/f01f0670c808eecfa1b6045de7c28c2f.png)
Input File: 04 Ilustrasi Peran Pembunuh.mp3
Channels : 2
Sample Rate : 44100
Precision : 16-bit
Duration : 00:03:04.07 = 8117575 samples = 13805.4 CDDA sectors
File Size : 7.46M
Bit Rate : 324k
Sample Encoding: MPEG audio (layer I, II or III)
Comments :
Title=Ilustrasi Peran Pembunuh
Artist=Soul Of Slamming
Album=Rekonstruksi Dogma
Tracknumber=4
Year=2019
Genre=Brutal Death Metal
Discnumber=1



Register


Go to the top of the page
  Insert nick Quick quote
+Quote Post

Reply to this topicStart new topic
1 User(s) are reading this topic (1 Guests and 0 Anonymous Users)
0 Members:

 



- Lo-Fi Version Support form
Copyrights and abuse reports form
Time is now: 22nd October 2019 - 07:20:16