Welcome Guest ( Log In | Register )

> Releases Upload / Добавление релизов

Добавить релиз тут / Click here to add release
Рекомендованные обменники / Recommended file shares

 
Reply to this topicStart new topic
> Vomiting Intestine - Psychopatic Murderous Brutality [ep] (2019), Brutal Death Metal
post Oct 11 2019, 22:37:38
Post #1

Правь статус, ####!111
**************
Group: Металариец
Posts: 19,524
Releases: 13212
From: Г.Харьков
On Forums: 7 years 6 months
Thanks: 227872 time(s)
Unknown


(IMG:http://metalarea.org/images/audiocovers/2019_Oct/acov_tid328698_thumb.jpg)

*Artist: Vomiting Intestine
*Album: Psychopatic Murderous Brutality [ep]
*Year: 2019
*Genre: Brutal Death Metal
*Country: Indonesia (IMG:http://metalarea.org/forum/style_images/flags/Indonesia.png)
*Format: mp3@CBR320kbps
*Size: 43MB

Tracklist:
01. First Blood
02. Bunuh
03. Fatalism Error In Revenge
04. Cruel Slaughter
05. Psikopat
******************************
Total playing time: 18:06



Extended info
Helmi : Vocal
Meta : Guitaris
Ilham: Drummer


Technical info
(IMG:http://metalarea.org/images/spectrogram/2019_Oct/db9d842ab8d09091dbad0af3baea8806.png)
Input File: 03 Fatalism Error In Revenge.mp3
Channels : 2
Sample Rate : 44100
Precision : 16-bit
Duration : 00:03:22.07 = 8911331 samples = 15155.3 CDDA sectors
File Size : 8.45M
Bit Rate : 334k
Sample Encoding: MPEG audio (layer I, II or III)
Comments :
Title=Fatalism Error In Revenge
Artist=Vomiting Intestine
Album=Psychopatic Murderous Brutality (EP)
Tracknumber=3
Year=2019
Genre=Brutal Death Metal
Discnumber=1



Register


Go to the top of the page
  Insert nick Quick quote
+Quote Post

Reply to this topicStart new topic
1 User(s) are reading this topic (1 Guests and 0 Anonymous Users)
0 Members:

 



- Lo-Fi Version Support form
Copyrights and abuse reports form
Time is now: 18th November 2019 - 16:50:56