Welcome Guest ( Log In | Register )

> Releases Upload / Добавление релизов

Добавить релиз тут / Click here to add release
Рекомендованные обменники / Recommended file shares

> Am:pm - A Mountain Peaks' Myth (2019), Melodic Death Metal/Deathcore
post Oct 11 2019, 22:46:50
Post #1

Четыре Литра
****
Group: Металариец
Posts: 350
Releases: 14
On Forums: 10 years 11 months
Thanks: 296 time(s)
Russian Federation


(IMG:http://metalarea.org/images/audiocovers/2019_Oct/acov_tid328699_thumb.jpg)

*Artist: Am:pm
*Album: A Mountain Peaks' Myth
*Year: 2019
*Genre: Melodic Death Metal/Deathcore
*Country: Switzerland (IMG:http://metalarea.org/forum/style_images/flags/Switzerland.png)
*Format: mp3@CBR320kbps
*Size: 103MB

Tracklist:
01. Open Your Eyes 03:29
02. Fallen Mount 03:39
03. Lionheart 04:13
04. I Have Lost My Home 01:48
05. Therefore Do I Roam 03:48
06. In a Torrent of Ice 04:30
07. Nature Awakes 01:04
08. When Titans Fell 06:47
09. A Legend After All 07:36
10. Into the Grooves 06:33
11. Echoes 01:45
******************************
Total playing time: 45:12

(IMG:http://metalarea.org/images/youtube.png)

Technical info
(IMG:http://metalarea.org/images/spectrogram/2019_Oct/99b795c8c7c140f0ded5754f356b3bc9.png)
Input File: 01-Open Your Eyes.mp3
Channels : 2
Sample Rate : 44100
Precision : 16-bit
Duration : 00:03:28.58 = 9198202 samples = 15643.2 CDDA sectors
File Size : 8.34M
Bit Rate : 320k
Sample Encoding: MPEG audio (layer I, II or III)
Comments :
Title=Open Your Eyes
Artist=AM : PM
Album=A Mountain Peaks' Myth
Tracknumber=1
Year=2019
Genre=Melodic Death Metal / Deathcore
Discnumber=1



Register


Go to the top of the page
  Insert nick Quick quote
+Quote Post
 
Start new topic
Replies (1 - 2)
post Oct 12 2019, 21:18:15
Post #2

MDM-Thrash Metal
**************
Group: Металариец
Posts: 8,889
Releases: 681
From: Одесса
On Forums: 12 years 2 months
Thanks: 18853 time(s)
Ukraine




ЦИТАТА(VLADISLAV_V_K @ Oct 12 2019, 00:46:50)
Стиль[/b]: Melodic Death Metal

Ну, такое...
Go to the top of the page
  Insert nick Quick quote
+Quote Post
post Oct 12 2019, 21:39:59
Post #3

Тридцать лет на борту "Тяжёлого" крейсера
**************
Group: Металариец
Posts: 2,104
Releases: 0
From: Питер
On Forums: 12 years 4 months
Thanks: 528 time(s)
Russian Federation


Неплохо. Атмосферно, мелодично, хотя и несколько однообразно
Go to the top of the page
  Insert nick Quick quote
+Quote Post

Reply to this topicStart new topic
1 User(s) are reading this topic (1 Guests and 0 Anonymous Users)
0 Members:

 



- Lo-Fi Version Support form
Copyrights and abuse reports form
Time is now: 21st October 2019 - 01:31:31