Welcome Guest ( Log In | Register )

> Releases Upload / Добавление релизов

Добавить релиз тут / Click here to add release
Рекомендованные обменники / Recommended file shares

 
Reply to this topicStart new topic
> Jade - Smoking Mirror [ep] (2019), Atmospheric Black/Death Metal (D8)
post Oct 11 2019, 22:52:15
Post #1

Правь статус, ####!111
**************
Group: Металариец
Posts: 3,927
Releases: 978
From: Brazil
On Forums: 7 years 8 months
Thanks: 36430 time(s)
Brazil


(IMG:https://metalarea.org/images/audiocovers/2019_Oct/acov_tid328700_thumb.jpg)

*Artist: Jade
*Album: Smoking Mirror [ep]
*Year: 2019
*Genre: Atmospheric Black/Death Metal
*Country: Germany (IMG:https://metalarea.org/forum/style_images/flags/Germany.png)
*Format: mp3@CBR320kbps
*Size: 53MB

Tracklist:
1. Jade Emperor 06:09
2. Dead Stone Mask 06:02
3. Blossom 04:43
4. Smoking Mirror 05:58
******************************
Total playing time: 22:52



Extended info
Location: Germany / Catalonia, Spain

JADE’s music is a tribute to the timeless obscure Metal language, from early Death / Doom manifestations to later Atmospheric Black acts, in a heavy, intense and epic form.



JADE's debut EP "Smoking Mirror - MMXVIII" was initially released only on tape in 2018 ( last copies available ).

Now, with renewed artwork and design, this piece of timeless Atmospheric Death Metal will soon be released on MCD & MLP by the cult Death Metal label Pulverised Records, in a limited quantity of 300 copies in the following color variants:

- 100 copies Transparent Green and Red Marble LP (Pulverised exclusive)
- 100 copies Bone in Oxblood LP (Cudgel exclusive)
- 100 copies Black LP

Besides, the Swedish label Nigredo Records will release a limited to 300 digipack edition. Keep tuned for further information here or at the labels' sites:


Technical info
(IMG:https://metalarea.org/images/spectrogram/2019_Oct/5fabf015368a6f9e2801af6d4e7e6d78.png)
Input File: 03 Blossom.mp3
Channels : 2
Sample Rate : 44100
Precision : 16-bit
Duration : 00:04:45.09 = 12572469 samples = 21381.7 CDDA sectors
File Size : 11.4M
Bit Rate : 320k
Sample Encoding: MPEG audio (layer I, II or III)
Comments :
Title=Blossom
Artist=Jade
Album=Smoking Mirror
Tracknumber=3
Year=2019



Register


Go to the top of the page
  Insert nick Quick quote
+Quote Post

Reply to this topicStart new topic
1 User(s) are reading this topic (1 Guests and 0 Anonymous Users)
0 Members:

 



- Lo-Fi Version Support form
Copyrights and abuse reports form
Time is now: 19th October 2019 - 23:10:45