Welcome Guest ( Log In | Register )

> Releases Upload / Добавление релизов

Добавить релиз тут / Click here to add release
Рекомендованные обменники / Recommended file shares

 
Reply to this topicStart new topic
> Sabaoth - The Inquisition [ep] (2019), Brutal Death Metal (D)
post Oct 11 2019, 23:04:59
Post #1

Правь статус, ####!111
**************
Group: Металариец
Posts: 19,079
Releases: 12876
From: Г.Харьков
On Forums: 7 years 5 months
Thanks: 221014 time(s)
Unknown


(IMG:http://metalarea.org/images/audiocovers/2019_Oct/acov_tid328701_thumb.jpg)

*Artist: Sabaoth
*Album: The Inquisition [ep]
*Year: 2019
*Genre: Brutal Death Metal
*Country: Indonesia (IMG:http://metalarea.org/forum/style_images/flags/Indonesia.png)
*Format: mp3@CBR320kbps
*Size: 38MB

Tracklist:
1. Defamation of God 04:48
2. Ensemble of Desecration 04:01
3. Servants of Inquisition 03:57
4. Cacophony of Hatred 03:34
******************************
Total playing time: 16:20



Extended info
Marcel Drums
Boy Vocals
Rio Guitars
Kurnia Koko Bass


Technical info
(IMG:http://metalarea.org/images/spectrogram/2019_Oct/8bdb0e81a8dad04d9dfeaa4be4ad7fe1.png)
Input File: 02 Ensemble Of Desecration.mp3
Channels : 2
Sample Rate : 44100
Precision : 16-bit
Duration : 00:04:01.57 = 10653237 samples = 18117.8 CDDA sectors
File Size : 9.81M
Bit Rate : 325k
Sample Encoding: MPEG audio (layer I, II or III)
Comments :
Title=Ensemble Of Desecration
Artist=Sabaoth
Album=The Inquisition (EP)
Tracknumber=2
Year=2019
Genre=Brutal Death Metal
Discnumber=1



Register


Go to the top of the page
  Insert nick Quick quote
+Quote Post

Reply to this topicStart new topic
1 User(s) are reading this topic (1 Guests and 0 Anonymous Users)
0 Members:

 



- Lo-Fi Version Support form
Copyrights and abuse reports form
Time is now: 21st October 2019 - 01:56:28