Welcome Guest ( Log In | Register )

> И неформату есть предел.

Рэп/хип-хоп/шансон/поп удаляются. Для них есть свои порталы.

> Noorvik - Omission (2019), Post-Metal/Post-Rock
post Oct 12 2019, 15:08:23
Post #1

Cultist
**************
Group: Металариец
Posts: 4,139
Releases: 1304
From: Koenigsberg
On Forums: 12 years 10 months
Thanks: 8150 time(s)
Russian Federation


(IMG:http://metalarea.org/images/audiocovers/2019_Oct/acov_tid328736_thumb.png)

*Artist: Noorvik
*Album: Omission
*Year: 2019
*Genre: Post-Metal/Post-Rock
*Country: Germany (IMG:http://metalarea.org/forum/style_images/flags/Germany.png)
*Format: mp3@CBR320kbps
*Size: 81MB

Tracklist:
01. Floating 8:14
02. Above 8:01
03. Hidden 9:22
04. Dark 9:50
******************************
Total playing time: 35:27

Technical info
(IMG:http://metalarea.org/images/spectrogram/2019_Oct/25d6606ef9402f73316689ecd0e4299a.png)
Input File: 02 - Above.mp3
Channels : 2
Sample Rate : 44100
Precision : 16-bit
Duration : 00:08:00.87 = 21206147 samples = 36064.9 CDDA sectors
File Size : 19.2M
Bit Rate : 320k
Sample Encoding: MPEG audio (layer I, II or III)
Comments :
Title=Above
Artist=Noorvik
Album=Omission
Tracknumber=2
Year=2019
Genre=Post-Metal/Post-Rock



Register


Go to the top of the page
  Insert nick Quick quote
+Quote Post
 
Start new topic
Replies (1 - 4)
post Oct 13 2019, 11:52:33
Post #2

Ёлд ХеллоВяйне
Group Icon
Group: V.I.P
Posts: 28,282
Releases: 132
From: Питер
On Forums: 13 years 2 weeks
Thanks: 16069 time(s)
Russian Federation


Go to the top of the page
  Insert nick Quick quote
+Quote Post
post Oct 13 2019, 12:07:09
Post #3

my church is black
********
Group: Металариец
Posts: 851
Releases: 1
On Forums: 2 years 5 months
Thanks: 490 time(s)
Cape Verde


буквально десять дней назад в баре познакомлся с несколькими туристами-голландцами, один из которых хвалил эту группу. в тему подгон прям
Go to the top of the page
  Insert nick Quick quote
+Quote Post
post Oct 13 2019, 13:01:37
Post #4

Cultist
**************
Group: Металариец
Posts: 4,139
Releases: 1304
From: Koenigsberg
On Forums: 12 years 10 months
Thanks: 8150 time(s)
Russian Federation


ЦИТАТА(Krosis @ Oct 13 2019, 14:07:09) *
буквально десять дней назад в баре познакомлся с несколькими туристами-голландцами, один из которых хвалил эту группу. в тему подгон прям

Ты на исландском с ними общался?
Go to the top of the page
  Insert nick Quick quote
+Quote Post
post Oct 13 2019, 13:04:38
Post #5

my church is black
********
Group: Металариец
Posts: 851
Releases: 1
On Forums: 2 years 5 months
Thanks: 490 time(s)
Cape Verde


ЦИТАТА(TDM @ 13th October 2019 - 17:01:37) *
Ты на исландском с ними общался?

не, на ломаном английском)
Go to the top of the page
  Insert nick Quick quote
+Quote Post

Reply to this topicStart new topic
1 User(s) are reading this topic (1 Guests and 0 Anonymous Users)
0 Members:

 



- Lo-Fi Version Support form
Copyrights and abuse reports form
Time is now: 13th November 2019 - 20:27:27