Welcome Guest ( Log In | Register )

> Skravl - Fire Besværgelser Mod Menneskeheden (2019), Black Metal
post Oct 13 2019, 04:37:46
Post #1

Правь статус, ####!111
**************
Group: Металариец
Posts: 4,832
Releases: 1474
From: Brazil
On Forums: 9 years 10 months
Thanks: 56215 time(s)
Brazil


(IMG:https://metalarea.org/images/audiocovers/2019_Oct/acov_tid328758_thumb.jpg)

*Artist: Skravl
*Album: Fire Besværgelser Mod Menneskeheden
*Year: 2019
*Genre: Black Metal
*Country: Denmark (IMG:https://metalarea.org/forum/style_images/flags/Denmark.png)
*Format: mp3@CBR320kbps
*Size: 49MB

Tracklist:
1. Untitled 05:26
2. Untitled 05:33
3. Untitled 05:36
4. Untitled 04:22
******************************
Total playing time: 20:57



Extended info
Lineup
Skravl - All instruments
See also: Fanebærer, Jordslået, Vaabnet


Debut album by another entity from the fervorous Korpsånd Circle.
After a brilliant split with comrade, War Is Aer, this one-man project from a member of Fanebærer, Jordslået and Vaabnet returns.

Amazing melancholic and mystical Black Metal, with a great sense of melody, terrific riffing and brilliant use of keyboards as well.

Release on cassette format through Nattetale and also available in digital format on Skravl's bandcamp page.


Technical info
(IMG:https://metalarea.org/images/spectrogram/2019_Oct/37eacab60f7df4c957bfb593ab3dec17.png)
Input File: 04 Untitled.mp3
Channels : 2
Sample Rate : 44100
Precision : 16-bit
Duration : 00:04:22.07 = 11557463 samples = 19655.5 CDDA sectors
File Size : 10.5M
Bit Rate : 320k
Sample Encoding: MPEG audio (layer I, II or III)
Comments :
Title=Untitled IV
Artist=Skravl
Album=Fire besværgelser mod menneskeheden
Tracknumber=4
Year=2019



Register


Go to the top of the page
  Insert nick Quick quote
+Quote Post
 
Start new topic
Replies (1 - 4)
post Oct 13 2019, 08:55:03
Post #2

Два Литра
**
Group: Завсегдатай
Posts: 194
Releases: 5
On Forums: 9 years 9 months
Thanks: 333 time(s)
Ukraine


This is so good!
Go to the top of the page
  Insert nick Quick quote
+Quote Post
post Oct 13 2019, 15:06:20
Post #3

De Mysteriis Dom Sathanas
**************
Group: Металариец
Posts: 4,346
Releases: 64
From: Doom
On Forums: 13 years 4 months
Thanks: 3742 time(s)
Russian Federation


Музыка неплоха, а вот вокал так себе


Thanks:
Go to the top of the page
  Insert nick Quick quote
+Quote Post
post Mar 14 2021, 21:27:28
Post #4

Два Литра
**
Group: Завсегдатай
Posts: 158
Releases: 0
On Forums: 1 year 11 months
Thanks: 8 time(s)
Russian Federation


Flac,please!
Go to the top of the page
  Insert nick Quick quote
+Quote Post
post Mar 28 2021, 18:37:02
Post #5

Мегаманьяк
***********
Group: Металариец
Posts: 1,549
Releases: 0
From: Canada
On Forums: 9 years 3 weeks
Thanks: 969 time(s)
Canada


Flac? x 2.
Go to the top of the page
  Insert nick Quick quote
+Quote Post

Reply to this topicStart new topic
1 User(s) are reading this topic (1 Guests and 0 Anonymous Users)
0 Members:

 



- Lo-Fi Version Support form
Copyrights and abuse reports form
Time is now: 8th December 2021 - 11:22:23