Welcome Guest ( Log In | Register )

> Releases Upload / Добавление релизов

Добавить релиз тут / Click here to add release
Рекомендованные обменники / Recommended file shares

> Laydown - First Blood (2019), Modern Heavy/Thrash Metal
post Oct 14 2019, 12:54:17
Post #1

MDM-Thrash Metal
**************
Group: Металариец
Posts: 9,078
Releases: 743
From: Одесса
On Forums: 12 years 3 months
Thanks: 19844 time(s)
Ukraine


(IMG:http://metalarea.org/images/audiocovers/2019_Oct/acov_tid328798.jpg)

*Artist: Laydown
*Album: First Blood
*Year: 2019
*Genre: Modern Heavy/Thrash Metal
*Country: Portugal (IMG:http://metalarea.org/forum/style_images/flags/Portugal.png)
*Format: mp3@CBR320kbps
*Size: 134MB

Tracklist:
01. Intro 01:45
02. Hannibal 04:33
03. The Prisoner 03:56
04. Decimation 06:00
05. First Blood 06:09
06. Voices 03:46
07. Addiction 04:22
08. Unrest 06:06
09. Pray to Kill 03:21
10. All Is Gone 04:55
11. Lvsitanivm 04:57
12. The Tirades of Poseidon 07:37
******************************
Total playing time: 57:27

(IMG:http://metalarea.org/images/youtube.png)
(IMG:http://metalarea.org/images/youtube.png)
(IMG:http://metalarea.org/images/youtube.png)


Technical info
(IMG:http://metalarea.org/images/spectrogram/2019_Oct/3aebf2deb6dca3303460540b131a3e5c.png)
Input File: 02. Hannibal.mp3
Channels : 2
Sample Rate : 44100
Precision : 16-bit
Duration : 00:04:33.60 = 12065672 samples = 20519.9 CDDA sectors
File Size : 11.0M
Bit Rate : 321k
Sample Encoding: MPEG audio (layer I, II or III)
Comments :
Title=Hannibal
Artist=Laydown
Album=First Blood
Tracknumber=2
Year=2019-10-08
Discnumber=1



Register


Go to the top of the page
  Insert nick Quick quote
+Quote Post
 
Start new topic
Replies (1 - 2)
post Oct 15 2019, 14:34:26
Post #2

hearer & reader
**************
Group: Металариец
Posts: 8,201
Releases: 110
From: Moscow
On Forums: 12 years 2 months
Thanks: 7719 time(s)
Russian Federation


Португальская пародия на Avenged Sevenfold
Go to the top of the page
  Insert nick Quick quote
+Quote Post
post Oct 16 2019, 01:14:30
Post #3

Несуществующий скелетик
**********
Group: Металариец
Posts: 1,294
Releases: 293
From: Санкт-Петербург
On Forums: 12 years 1 month
Thanks: 4024 time(s)
Russian Federation


Прочитал было сначала Lazytown (IMG:style_emoticons/default/1488.gif)
Go to the top of the page
  Insert nick Quick quote
+Quote Post

Reply to this topicStart new topic
2 User(s) are reading this topic (2 Guests and 0 Anonymous Users)
0 Members:

 



- Lo-Fi Version Support form
Copyrights and abuse reports form
Time is now: 21st November 2019 - 12:27:09