Welcome Guest ( Log In | Register )

> И неформату есть предел.

Рэп/хип-хоп/шансон/поп удаляются. Для них есть свои порталы.

 
Reply to this topicStart new topic
> Ten - Albion (2014), Melodic Hard Rock (D12)
post Oct 15 2019, 00:53:52
Post #1

Семь Литров
*******
Group: Металариец
Posts: 705
Releases: 31
From: Vladivostok
On Forums: 10 years 1 week
Thanks: 1025 time(s)
Russian Federation


(IMG:http://metalarea.org/images/audiocovers/2019_Oct/acov_tid328809_thumb.jpg)

*Artist: Ten
*Album: Albion
*Year: 2014
*Genre: Melodic Hard Rock
*Country: United Kingdom (IMG:http://metalarea.org/forum/style_images/flags/United%20Kingdom.png)
*Format: mp3@CBR320kbps
*Size: 136MB

Tracklist:
01. Alone In The Dark Tonight
02. Battlefield
03. It's Alive
04. Albion Born
05. Sometimes Love Takes The Long Way Home
06. A Smuggler's Tale
07. Die For Me
08. It Ends This Day
09. Gioco D'Amore
10. Wild Horses
11. Good God In Heaven What Hell Is This (Bonus Track)
******************************
Total playing time: 58:03

Extended info
Japan edition+covers


Technical info
(IMG:http://metalarea.org/images/spectrogram/2019_Oct/174a76c3c5475017c614be8bb6a39873.png)
Input File: 01.Alone In The Dark Tonight.mp3
Channels : 2
Sample Rate : 44100
Precision : 16-bit
Duration : 00:04:21.09 = 11513849 samples = 19581.4 CDDA sectors
File Size : 10.4M
Bit Rate : 320k
Sample Encoding: MPEG audio (layer I, II or III)
Comments :
Title=Alone In The Dark Tonight
Artist=Ten
Album=Albion
Tracknumber=1
Year=2014
Genre=Hard Rock



Register


This post has been edited by Borderline1991: Oct 15 2019, 11:39:35


Thanks:
Go to the top of the page
  Insert nick Quick quote
+Quote Post

Reply to this topicStart new topic
1 User(s) are reading this topic (1 Guests and 0 Anonymous Users)
0 Members:

 



- Lo-Fi Version Support form
Copyrights and abuse reports form
Time is now: 13th November 2019 - 21:14:03