Welcome Guest ( Log In | Register )

> И неформату есть предел.

Рэп/хип-хоп/шансон/поп удаляются. Для них есть свои порталы.

 
Reply to this topicStart new topic
> Thirteenth Exile - Assorted Chaos And Broken Machinery (2005), Aggrotech
post Oct 17 2019, 00:00:16
Post #1

Два Литра
**
Group: Завсегдатай
Posts: 179
Releases: 42
On Forums: 3 years 3 months
Thanks: 985 time(s)
United States


(IMG:http://metalarea.org/images/audiocovers/2019_Oct/acov_tid328875_thumb.jpg)

*Artist: Thirteenth Exile
*Album: Assorted Chaos And Broken Machinery
*Year: 2005
*Genre: Aggrotech
*Country: Sweden (IMG:http://metalarea.org/forum/style_images/flags/Sweden.png)
*Format: mp3@VBR276kbps
*Size: 65MB

Tracklist:
1 Prologue
2 No More Regrets
3 Diseasespreader
4 Superficial World
5 Generation Hate
6 Rejection
7 Redeemer
8 Stagnation
9 Zone Of Hallucinations
10 Wounds
11 In Murder
12 Epilogue
******************************
Total playing time: 43:49

(IMG:http://metalarea.org/images/youtube.png)

Technical info
(IMG:http://metalarea.org/images/spectrogram/2019_Oct/032da4c71b4007a5d2f6eb0b30226e1c.png)
Input File: thirteenth exile - assorted chaos and broken machinery - 01 - prologue.mp3
Channels : 2
Sample Rate : 44100
Precision : 16-bit
Duration : 00:01:37.72 = 4309628 samples = 7329.3 CDDA sectors
File Size : 3.41M
Bit Rate : 279k
Sample Encoding: MPEG audio (layer I, II or III)
Comments :
Title=Prologue
Artist=Thirteenth Exile
Album=Assorted Chaos And Broken Machinery
Tracknumber=1
Year=2005
Genre=Other



Register


Thanks:
Go to the top of the page
  Insert nick Quick quote
+Quote Post

Reply to this topicStart new topic
1 User(s) are reading this topic (1 Guests and 0 Anonymous Users)
0 Members:

 



- Lo-Fi Version Support form
Copyrights and abuse reports form
Time is now: 12th November 2019 - 04:42:44