Welcome Guest ( Log In | Register )

> 

Здесь релизы с живыми прямыми ссылками на lossless

> Teitanblood - The Baneful Choir (2019), Death/Black Metal
post Oct 17 2019, 12:29:23
Post #1

Serial Uploader
Group Icon
Group: V.I.P
Posts: 36,839
Releases: 35022
From: Lithuania
On Forums: 11 years 7 months
Thanks: 411323 time(s)
Lithuania


(IMG:http://metalarea.org/images/audiocovers/2019_Oct/acov_tid328906_thumb.jpg)

*Artist: Teitanblood
*Album: The Baneful Choir
*Year: 2019
*Genre: Death/Black Metal
*Country: Spain (IMG:http://metalarea.org/forum/style_images/flags/Spain.png)
*Format: mp3@CBR320kbps
*Size: 119MB

Tracklist:
01. Rapture Below 03:34
02. Black Vertebrae 04:38
03. Leprous Fire 04:40
04. Ungodly Others 04:49
05. Inhuman Utterings 06:20
06. Insight 01:44
07. ...of the Mad Men 01:11
08. The Baneful Choir 08:49
09. Sunken Stars 06:13
10. Verdict of the Dead 05:05
11. Charnel Above 04:37
******************************
Total playing time: 51:40




Technical info
(IMG:http://metalarea.org/images/spectrogram/2019_Oct/c20892c063d8c7d046becc91a1884916.png)
Input File: 1 - Rapture Below.mp3
Channels : 2
Sample Rate : 44100
Precision : 16-bit
Duration : 00:03:33.67 = 9422715 samples = 16025 CDDA sectors
File Size : 8.62M
Bit Rate : 323k
Sample Encoding: MPEG audio (layer I, II or III)
Comments :
Title=Rapture Below
Artist=Teitanblood
Album=The Baneful Choir
Tracknumber=1
Year=2019
Genre=Rock
Discnumber=1



Register


Go to the top of the page
  Insert nick Quick quote
+Quote Post
3 Pages V  < 1 2 3  
Start new topic
Replies (60 - 61)
post Nov 28 2019, 22:41:19
Post #61

Мегаманьяк
***********
Group: Металариец
Posts: 1,670
Releases: 0
On Forums: 10 years 10 months
Thanks: 634 time(s)
Antarctica


О. Не ожидаль.
И как? Такой же разнос, как на 2014-м?
Go to the top of the page
  Insert nick Quick quote
+Quote Post
post Nov 28 2019, 22:42:18
Post #62

Правь статус, ####!111
**************
Group: Металариец
Posts: 44,918
Releases: 694
On Forums: 10 years 7 months
Thanks: 36429 time(s)
Russian Federation


ЦИТАТА(mittal @ Nov 29 2019, 01:41:19) *
О. Не ожидаль.
И как? Такой же разнос, как на 2014-м?


По мнению местных даже все еще лучше тут )
Go to the top of the page
  Insert nick Quick quote
+Quote Post

3 Pages V  < 1 2 3
Reply to this topicStart new topic
1 User(s) are reading this topic (1 Guests and 0 Anonymous Users)
0 Members:

 



- Lo-Fi Version Support form
Copyrights and abuse reports form
Time is now: 23rd January 2020 - 16:19:02