Welcome Guest ( Log In | Register )

> 

Здесь релизы с живыми прямыми ссылками на lossless

> Teitanblood - The Baneful Choir (2019), Death/Black Metal
post Oct 17 2019, 12:29:23
Post #1

Serial Uploader
Group Icon
Group: V.I.P
Posts: 37,287
Releases: 35468
From: Lithuania
On Forums: 12 years 2 months
Thanks: 422691 time(s)
Lithuania


(IMG:http://metalarea.org/images/audiocovers/2019_Oct/acov_tid328906_thumb.jpg)

*Artist: Teitanblood
*Album: The Baneful Choir
*Year: 2019
*Genre: Death/Black Metal
*Country: Spain (IMG:http://metalarea.org/forum/style_images/flags/Spain.png)
*Format: mp3@CBR320kbps
*Size: 119MB

Tracklist:
01. Rapture Below 03:34
02. Black Vertebrae 04:38
03. Leprous Fire 04:40
04. Ungodly Others 04:49
05. Inhuman Utterings 06:20
06. Insight 01:44
07. ...of the Mad Men 01:11
08. The Baneful Choir 08:49
09. Sunken Stars 06:13
10. Verdict of the Dead 05:05
11. Charnel Above 04:37
******************************
Total playing time: 51:40




Technical info
(IMG:http://metalarea.org/images/spectrogram/2019_Oct/c20892c063d8c7d046becc91a1884916.png)
Input File: 1 - Rapture Below.mp3
Channels : 2
Sample Rate : 44100
Precision : 16-bit
Duration : 00:03:33.67 = 9422715 samples = 16025 CDDA sectors
File Size : 8.62M
Bit Rate : 323k
Sample Encoding: MPEG audio (layer I, II or III)
Comments :
Title=Rapture Below
Artist=Teitanblood
Album=The Baneful Choir
Tracknumber=1
Year=2019
Genre=Rock
Discnumber=1



Register


Go to the top of the page
  Insert nick Quick quote
+Quote Post
3 Pages V  < 1 2 3  
Start new topic
Replies (60 - 63)
post Nov 28 2019, 22:42:18
Post #61

Правь статус, ####!111
**************
Group: Металариец
Posts: 47,038
Releases: 732
On Forums: 11 years 2 months
Thanks: 39686 time(s)
Russian Federation


ЦИТАТА(mittal @ Nov 29 2019, 01:41:19) *
О. Не ожидаль.
И как? Такой же разнос, как на 2014-м?


По мнению местных даже все еще лучше тут )
Go to the top of the page
  Insert nick Quick quote
+Quote Post
post May 7 2020, 05:59:12
Post #62
BAN
Banned till
Nov 16 2202, 06:11:27



заумная жвачка для эстетствующих оккультистов.
Go to the top of the page
  Insert nick Quick quote
+Quote Post
post May 29 2020, 10:57:40
Post #63

Правь статус, ####!111
**************
Group: Металариец
Posts: 3,979
Releases: 14
From: Москва и МО
On Forums: 14 years 1 month
Thanks: 1167 time(s)
Russian Federation


Лучше или хуже, сказать трудно.
Т.к. что 2014 это мощуга, так и тут все по канонам. Знатная жужжалка с прекрасным эмбиентом.
Нет православных песнопений в конце, но у альбома свои фишки.
На виниле слушается просто божественно (да и в целом в цифре не все не то). Плюс классные буклеты с офигенным артом (чего не хватало прошлому релизу, где был просто вкладыш, хоть и оформленный на высочайшем уровне).
Обложка зачем-то сделана очень темная, в этом плане любимая у меня Woven Black Arteries, вот где буйство красок.

Отличный альбом!


Thanks:
(1) Фо,
Go to the top of the page
  Insert nick Quick quote
+Quote Post
post Jun 3 2020, 21:39:58
Post #64

Only Death is Real
**********
Group: Металариец
Posts: 1,195
Releases: 0
From: R'lyeh
On Forums: 3 years 7 months
Thanks: 1375 time(s)
Poland


QUOTE(biroutios @ Oct 27 2019, 13:16:55) *
He his right. They all are playing black death in war metal style on six string guitars.


Yes, but calling Teitanblood a War Metal band is a big shortcut. The same as calling them as only Black Metal or only Death Metal. They can be compared to Blasphemy, Archgoat, Proclamation but add to them Von, Beherit, Demoncy, Sodom, Sarcófago, Incantation, Autopsy, early Death (with Chris Reifert), some Grindcore and Doom and especially here Dark Ambient like their countrymen from Like Drone Razors Through Flesh Sphere (a member of this band is also a member of Teitanblood since 2019). In other words it's not that easy to classify them. This album is a bit different than previous. A bit less chaotic, yet still amazing. It's like an inhuman and doomy tribute to the Great Old Ones from Lovecraftian horrors. In music, lyrics and graphics.


Go to the top of the page
  Insert nick Quick quote
+Quote Post

3 Pages V  < 1 2 3
Reply to this topicStart new topic
1 User(s) are reading this topic (1 Guests and 0 Anonymous Users)
0 Members:

 



- Lo-Fi Version Support form
Copyrights and abuse reports form
Time is now: 10th August 2020 - 07:40:46