Welcome Guest ( Log In | Register )

> 

Здесь релизы с живыми прямыми ссылками на lossless

> Profetus - The Sadness Of Time Passing (2019), Funeral Doom Metal
post Oct 17 2019, 21:18:02
Post #1

Четыре Литра
****
Group: Металариец
Posts: 325
Releases: 184
On Forums: 7 years 3 months
Thanks: 4515 time(s)
Unknown


(IMG:http://metalarea.org/images/audiocovers/2019_Oct/acov_tid328949_thumb.jpg)

*Artist: Profetus
*Album: The Sadness Of Time Passing
*Year: 2019
*Genre: Funeral Doom Metal
*Country: Finland (IMG:http://metalarea.org/forum/style_images/flags/Finland.png)
*Format: mp3@CBR320kbps
*Size: 151MB

Tracklist:
1. The Sadness of Time Passing 14:33
2. Nostalgia 10:04
3. Momentary Burial 08:49
4. Northern Crown 15:15
5. Tiarnia 16:34
******************************
Total playing time: 1:05:15



Extended info
Personal purchase.

One can undoubtedly say that Finland is the cradle of funeral doom metal.
From Thergothon and Skepticism to Tyranny and Shape Of Despair, the
land of the thousand lakes gave birth, shape and life to this sub-sub-genre so monolithic and impenetrable. Here at Avantgarde Music we know something about it, as Thergothon only studio album was our very first release, back in 1994, and now, a quarter of a century later we go back to the scene of the crime.
Profetus is definitely not a surprise for doom lovers, as the Tampere
collective led by guitarist and vocalist Anssi Mäkinen in thirteen years of
activity published one demo, two albums and one ep, all of which were
highly acclaimed by the followers of the funeral cult. The Sadness Of Time Passing is the third full-length studio album by the Finnish band, and is worth every single day of the five long years its creation took.
Profetus third studio album is a concept about time and mortality, a
collection of bleak compositions to raise the awareness that everything is transient, all is impermanent. To express such idea, The Sadness Of Time Passing can be linked to the Japanese concept "mono no aware", and such link to the far east is sealed by its cover. The painting by Yuka Yoshihara,
talented contemporary Japanese painter, was made using 19th century
colors and old Japanese painting techniques to resemble a Finnish
romantic, XVII century painting.
The Sadness Of Time Passing was composed along a five-year span, a
period which carried great personal losses for Mäkinen. Eventually,
Profetus locked the door of their own studio, a wooden lodge in the middle of the Finnish woods, and recorded the album as a whole during one week only, in early 2018. The studio, said to be haunted by the spirits of the woods, gave a natural sound to the recordings


Technical info
(IMG:http://metalarea.org/images/spectrogram/2019_Oct/91472d482696979c64ef565ee2003740.png)
Input File: Profetus - The Sadness of Time Passing - 01 The Sadness of Time Passing.mp3
Channels : 2
Sample Rate : 44100
Precision : 16-bit
Duration : 00:14:34.11 = 38548031 samples = 65557.9 CDDA sectors
File Size : 35.1M
Bit Rate : 321k
Sample Encoding: MPEG audio (layer I, II or III)
Comments :
Title=The Sadness of Time Passing
Artist=Profetus
Album=The Sadness of Time Passing
Tracknumber=1
Year=2019



Register


Go to the top of the page
  Insert nick Quick quote
+Quote Post
 
Start new topic
Replies (1 - 9)
post Oct 18 2019, 05:54:59
Post #2

Два Литра
**
Group: Завсегдатай
Posts: 126
Releases: 2
On Forums: 13 years 8 months
Thanks: 129 time(s)
Unknown


Preview:






Thanks:
(1) Sanctus,
Go to the top of the page
  Insert nick Quick quote
+Quote Post
post Oct 18 2019, 08:33:02
Post #3

Group: Подсевший
Posts: 42
Releases: 1
On Forums: 4 years 4 months
Thanks: 52 time(s)
Unknown


Чё-то гитарка жидковата. Всё портит
Go to the top of the page
  Insert nick Quick quote
+Quote Post
post Oct 18 2019, 08:53:06
Post #4

Русь Понад Усе!
**************
Group: Металариец
Posts: 4,244
Releases: 15
From: Украина
On Forums: 12 years 3 months
Thanks: 1664 time(s)
Ukraine


Очень хорошо! (IMG:style_emoticons/default/bye.gif)


Thanks:
(1) Fess,
Go to the top of the page
  Insert nick Quick quote
+Quote Post
post Oct 19 2019, 17:01:54
Post #5

Правь статус, ####!111
**************
Group: Металариец
Posts: 2,756
Releases: 8
From: Dnipro
On Forums: 11 years 4 months
Thanks: 863 time(s)
Ukraine


ЦИТАТА(pothead @ Oct 18 2019, 10:33:02) *
Чё-то гитарка жидковата. Всё портит

Она у них всегда такая и была (IMG:style_emoticons/default/bye.gif)
Go to the top of the page
  Insert nick Quick quote
+Quote Post
post Oct 19 2019, 19:52:44
Post #6

funeral doom fan
Group Icon
Group: S-moderation team
Posts: 4,770
Releases: 2452
From: Ростов-на-Дону
On Forums: 13 years 11 months
Thanks: 46311 time(s)
Russian Federation


Всё по канонам. Качественно.
Только на днях переслушивал Stream From The Heavens. В третьей песне сходство очевидно. Но это и не плохо. Я только за если такой музыки будет больше.
Go to the top of the page
  Insert nick Quick quote
+Quote Post
post Nov 3 2019, 11:29:27
Post #7

Necromancer
Group Icon
Group: Curation team
Posts: 10,980
Releases: 271
From: Зеленоград
On Forums: 13 years 2 months
Thanks: 8798 time(s)
Russian Federation


Да, так и есть, всё по канонам. (IMG:style_emoticons/default/20.gif)
Go to the top of the page
  Insert nick Quick quote
+Quote Post
post Nov 8 2019, 10:14:02
Post #8

####!111
**************
Group: Металариец
Posts: 3,801
Releases: 125
From: The Mountain Of DOOM
On Forums: 12 years 2 months
Thanks: 5311 time(s)
Russian Federation


Удалось не уснуть на последних двух треках только с третьей попытки. А так альбом хороший
Go to the top of the page
  Insert nick Quick quote
+Quote Post
post Nov 16 2019, 14:56:38
Post #9

Group: Подсевший
Posts: 48
Releases: 0
On Forums: 11 years 10 months
Thanks: 12 time(s)
United Kingdom


Loving This A Lot. I know their stuff sounds a bit samey but it's still heavy and full of misery - lovely. Northern Crown is the best song on the album. (IMG:style_emoticons/default/dooo.gif)
Go to the top of the page
  Insert nick Quick quote
+Quote Post
post Dec 4 2019, 17:32:42
Post #10


Group Icon
Group: S-moderation team
Posts: 12,903
Releases: 1439
From: Zagreb
On Forums: 8 years 9 months
Thanks: 56005 time(s)
Croatia


flac:
Register

Register


This post has been edited by Borderline1991: Dec 5 2019, 10:35:20


Go to the top of the page
  Insert nick Quick quote
+Quote Post

Reply to this topicStart new topic
1 User(s) are reading this topic (1 Guests and 0 Anonymous Users)
0 Members:

 



- Lo-Fi Version Support form
Copyrights and abuse reports form
Time is now: 10th December 2019 - 11:49:34