Welcome Guest ( Log In | Register )

> Corneus - My Black Visions Of Doom [demo] (2001), Black Metal (D)
post Oct 17 2019, 22:12:58
Post #1

Три Литра
***
Group: Завсегдатай
Posts: 202
Releases: 52
On Forums: 4 years 8 months
Thanks: 1224 time(s)
United States


(IMG:https://metalarea.org/images/audiocovers/nocover.gif)

*Artist: Corneus
*Album: My Black Visions Of Doom [demo]
*Year: 2001
*Genre: Black Metal
*Country: Germany (IMG:https://metalarea.org/forum/style_images/flags/Germany.png)
*Format: mp3@VBR199kbps
*Size: 73MB

Tracklist:
1. Intro
2. Soul Masturbation
3. Rape My Mind
4. Die Grotte alles Schlechten
5. My Black Visions of Doom
6. Deep in Hell...
7. Ausblutung
8. Stench of Gore
9. I'm the Descendant
10. Obstrusive Sexual Terror
11. Behold the Goat
12. My Hypocrisy Is Your Death
13. Suburb of the Hell
14. Chopperkill
15. Gottes entgültiger Hirnschlag
16. My Hypocrisy Is Your Death (Version 2000)
******************************
Total playing time: 36:15

Technical info
(IMG:https://metalarea.org/images/spectrogram/2019_Oct/2538f303a9c5f7c764a3e37e99239c6b.png)
Input File: 11 - Behold the Goat.mp3
Channels : 2
Sample Rate : 44100
Precision : 16-bit
Duration : 00:02:07.66 = 5629806 samples = 9574.5 CDDA sectors
File Size : 4.16M
Bit Rate : 261k
Sample Encoding: MPEG audio (layer I, II or III)
Comments :
Title=Behold The Goat
Artist=Corneus
Album=My Black Visions Of Doom
Tracknumber=11
Year=2001
Genre=Black Metal



Register


Go to the top of the page
  Insert nick Quick quote
+Quote Post
 
Start new topic
Replies (1 - 5)
post Oct 18 2019, 10:03:26
Post #2

Group: Подсевший
Posts: 12
Releases: 4
On Forums: 1 year 11 months
Thanks: 75 time(s)
Unknown


I also posted Visions of Hitler earlier.


Thanks:
Go to the top of the page
  Insert nick Quick quote
+Quote Post
post Oct 18 2019, 19:35:46
Post #3

Forever Underground
**************
Group: Металариец
Posts: 8,143
Releases: 0
On Forums: 6 years 2 weeks
Thanks: 11110 time(s)
Unknown


QUOTE(INDARKNESS @ Oct 18 2019, 17:56:43) *
и где эти видения,тоже на сайте? (IMG:style_emoticons/default/1488.gif)

+1 (IMG:style_emoticons/default/15.gif) @Grev1389 ...and you posted it despite the forum rules? (IMG:style_emoticons/default/17.gif) (IMG:style_emoticons/default/fear.gif) (IMG:style_emoticons/default/hmm.gif)

Edit: moderation has approved this upload even if there's "that" name in the title of release (IMG:style_emoticons/default/12.gif) (IMG:style_emoticons/default/spitggis0.gif) The topic is this one:
Register
Go to the top of the page
  Insert nick Quick quote
+Quote Post
post Oct 23 2019, 16:40:36
Post #4

Forever Underground
**************
Group: Металариец
Posts: 8,143
Releases: 0
On Forums: 6 years 2 weeks
Thanks: 11110 time(s)
Unknown


Link is already dead! (IMG:style_emoticons/default/mad_ani.gif) (IMG:style_emoticons/default/mad_ani.gif) (IMG:style_emoticons/default/mad_ani.gif) Re-up, please... (IMG:style_emoticons/default/pray.gif)
Go to the top of the page
  Insert nick Quick quote
+Quote Post
post Oct 23 2019, 17:37:10
Post #5

Group Icon
Group: S-moderation team
Posts: 20,347
Releases: 1441
From: Zagreb
On Forums: 10 years 1 month
Thanks: 93343 time(s)
Croatia


QUOTE
moderation has approved this upload even if there's "that" name in the title of release (IMG:style_emoticons/default/12.gif)
(IMG:style_emoticons/default/1488.gif) Of course. Corneus isn't NSBM and doesn't promote nationalism.
QUOTE
Register


Go to the top of the page
  Insert nick Quick quote
+Quote Post
post Oct 23 2019, 18:45:33
Post #6

Forever Underground
**************
Group: Металариец
Posts: 8,143
Releases: 0
On Forums: 6 years 2 weeks
Thanks: 11110 time(s)
Unknown


(IMG:style_emoticons/default/true_black.gif) (IMG:style_emoticons/default/pleased.gif) (IMG:style_emoticons/default/9.gif)
Go to the top of the page
  Insert nick Quick quote
+Quote Post

Reply to this topicStart new topic
2 User(s) are reading this topic (2 Guests and 0 Anonymous Users)
0 Members:

 



- Lo-Fi Version Support form
Copyrights and abuse reports form
Time is now: 21st April 2021 - 15:16:56