Welcome Guest ( Log In | Register )

> И неформату есть предел.

Рэп/хип-хоп/шансон/поп удаляются. Для них есть свои порталы.

> Year Of The Goat - Novis Orbis Terrarum Ordinis (2019), Psychedelic/Occult Rock (D6)
post Oct 18 2019, 10:24:43
Post #1

Четыре Литра
****
Group: Металариец
Posts: 342
Releases: 127
From: Helvetia
On Forums: 7 years 3 months
Thanks: 2415 time(s)
Switzerland


(IMG:https://metalarea.org/images/audiocovers/2019_Oct/acov_tid328974_thumb.jpg)

*Artist: Year Of The Goat
*Album: Novis Orbis Terrarum Ordinis
*Year: 2019
*Genre: Psychedelic/Occult Rock
*Country: Sweden (IMG:https://metalarea.org/forum/style_images/flags/Sweden.png)
*Format: mp3@CBR320kbps
*Size: 128MB

Tracklist:
1. Subortus 5:28
2. Acedia 4:16
3. Luxuria 4:08
4. Ira 9:40
5. Superbia 4:35
6. Gula 4:51
7. Avaritia 3:42
8. Invidia 5:20
9. Subicio 14:01
******************************
Total playing time: 56:01



(IMG:https://metalarea.org/images/youtube.png)

Technical info
(IMG:https://metalarea.org/images/spectrogram/2019_Oct/7c2d8c770efb67001ee19f2022e7afce.png)
Input File: 4 - Ira.mp3
Channels : 2
Sample Rate : 44100
Precision : 16-bit
Duration : 00:09:40.13 = 25583865 samples = 43510 CDDA sectors
File Size : 23.3M
Bit Rate : 321k
Sample Encoding: MPEG audio (layer I, II or III)
Comments :
Title=Ira
Artist=Year Of The Goat
Album=Novis Orbis Terrarum Ordinis
Tracknumber=4
Year=2019
Genre=Rock
Discnumber=1



Register


Go to the top of the page
  Insert nick Quick quote
+Quote Post
 
Start new topic
Replies (1 - 8)
post Nov 19 2019, 20:53:23
Post #2

Group: Подсевший
Posts: 29
Releases: 2
From: The Quiet Place
On Forums: 10 years 7 months
Thanks: 12 time(s)
Unknown


Mirror link?
Go to the top of the page
  Insert nick Quick quote
+Quote Post
post Nov 19 2019, 21:01:32
Post #3

Group Icon
Group: S-moderation team
Posts: 15,550
Releases: 1440
From: Zagreb
On Forums: 9 years 2 months
Thanks: 69038 time(s)
Croatia


Register


Thanks:
Go to the top of the page
  Insert nick Quick quote
+Quote Post
post Nov 19 2019, 21:03:51
Post #4

убивай меломанов
*********
Group: Металариец
Posts: 924
Releases: 6
On Forums: 9 years 8 months
Thanks: 1220 time(s)
Ukraine


вау, как это я просчелкал
и главное все молчат, охренели штоле?
Go to the top of the page
  Insert nick Quick quote
+Quote Post
post Nov 30 2019, 15:27:56
Post #5

убивай меломанов
*********
Group: Металариец
Posts: 924
Releases: 6
On Forums: 9 years 8 months
Thanks: 1220 time(s)
Ukraine


какая все-таки песдатая банда. не ghost конечно, уровня blood ceremony пожалуй.
Go to the top of the page
  Insert nick Quick quote
+Quote Post
post Nov 30 2019, 16:30:40
Post #6

Два Литра
**
Group: Завсегдатай
Posts: 141
Releases: 0
On Forums: 1 year 2 weeks
Thanks: 9 time(s)
Russian Federation


ЦИТАТА(tormoz @ Nov 30 2019, 15:27:56) *
какая все-таки песдатая банда. не ghost конечно, уровня blood ceremony пожалуй.

Справедливости ради: Ghost давно в оккульт-року отношение имеют крайне опосредованное, группа-то давно мэйснтримно-попсовая)
Blood C. и Year повинтажнее будут)
Go to the top of the page
  Insert nick Quick quote
+Quote Post
post Nov 30 2019, 16:48:32
Post #7
BAN
Banned till
Jul 17 2020, 21:47:37



Ну ради ещё большей справедливости Ghost никогда и не задумывались как именно оккульт рок группа. Что же до виновников торжества, то они с минимумом изменений продолжают выпускать сильный в меру материал. На протяжении всей карьеры им не хватает какого-то именно громкого хита, что учитывая их потенциал вывел бы их на вершину олимпа их стилистики как минимум.
Go to the top of the page
  Insert nick Quick quote
+Quote Post
post Nov 30 2019, 17:08:27
Post #8

убивай меломанов
*********
Group: Металариец
Posts: 924
Releases: 6
On Forums: 9 years 8 months
Thanks: 1220 time(s)
Ukraine


ЦИТАТА(Djarovich @ Nov 30 2019, 17:30:40) *
Справедливости ради: Ghost давно в оккульт-року отношение имеют крайне опосредованное, группа-то давно мэйснтримно-попсовая)
Blood C. и Year повинтажнее будут)


справедливости ради, yotg риальне сотонисты, а алия как-то призналась, что весь их оккультизм не что иное, как антураж.
что до форге, то все не так однозначно, опосредованные мейнстримно-попсовые персонажи лемучи песни не посвящают.
Go to the top of the page
  Insert nick Quick quote
+Quote Post
post Dec 6 2019, 21:07:21
Post #9

убивай меломанов
*********
Group: Металариец
Posts: 924
Releases: 6
On Forums: 9 years 8 months
Thanks: 1220 time(s)
Ukraine


лучший альбом в стиле (хм), который я услышал за долгое время, скажем, после крайней работы змеинокожих ангелов ничего круче не было. Ira и связка алчность-зависть выносят в астрал.
Go to the top of the page
  Insert nick Quick quote
+Quote Post

Reply to this topicStart new topic
1 User(s) are reading this topic (1 Guests and 0 Anonymous Users)
0 Members:

 



- Lo-Fi Version Support form
Copyrights and abuse reports form
Time is now: 27th May 2020 - 16:34:05