Welcome Guest ( Log In | Register )

> И неформату есть предел.

Рэп/хип-хоп/шансон/поп удаляются. Для них есть свои порталы.

 
Reply to this topicStart new topic
> Year Of The Goat - Novis Orbis Terrarum Ordinis (2019), Psychedelic/Occult Rock (D6)
post Oct 18 2019, 10:24:43
Post #1

Четыре Литра
****
Group: Металариец
Posts: 321
Releases: 122
From: Helvetia
On Forums: 6 years 9 months
Thanks: 2120 time(s)
Switzerland


(IMG:https://metalarea.org/images/audiocovers/2019_Oct/acov_tid328974_thumb.jpg)

*Artist: Year Of The Goat
*Album: Novis Orbis Terrarum Ordinis
*Year: 2019
*Genre: Psychedelic/Occult Rock
*Country: Sweden (IMG:https://metalarea.org/forum/style_images/flags/Sweden.png)
*Format: mp3@CBR320kbps
*Size: 128MB

Tracklist:
1. Subortus 5:28
2. Acedia 4:16
3. Luxuria 4:08
4. Ira 9:40
5. Superbia 4:35
6. Gula 4:51
7. Avaritia 3:42
8. Invidia 5:20
9. Subicio 14:01
******************************
Total playing time: 56:01



(IMG:https://metalarea.org/images/youtube.png)

Technical info
(IMG:https://metalarea.org/images/spectrogram/2019_Oct/7c2d8c770efb67001ee19f2022e7afce.png)
Input File: 4 - Ira.mp3
Channels : 2
Sample Rate : 44100
Precision : 16-bit
Duration : 00:09:40.13 = 25583865 samples = 43510 CDDA sectors
File Size : 23.3M
Bit Rate : 321k
Sample Encoding: MPEG audio (layer I, II or III)
Comments :
Title=Ira
Artist=Year Of The Goat
Album=Novis Orbis Terrarum Ordinis
Tracknumber=4
Year=2019
Genre=Rock
Discnumber=1



Register


Go to the top of the page
  Insert nick Quick quote
+Quote Post

Reply to this topicStart new topic
1 User(s) are reading this topic (1 Guests and 0 Anonymous Users)
0 Members:

 



- Lo-Fi Version Support form
Copyrights and abuse reports form
Time is now: 17th November 2019 - 08:11:27