Welcome Guest ( Log In | Register )

> Releases Upload / Добавление релизов

Добавить релиз тут / Click here to add release
Рекомендованные обменники / Recommended file shares

 
Reply to this topicStart new topic
> Caelestis - Demo 2007 [demo] (2007), Death Metal
post Oct 22 2019, 11:57:18
Post #1

Девять Литров
*********
Group: Металариец
Posts: 994
Releases: 364
From: Саранск
On Forums: 8 years 7 months
Thanks: 2933 time(s)
Russian Federation


(IMG:https://metalarea.org/images/audiocovers/2019_Oct/acov_tid329141.jpg)

*Artist: Caelestis
*Album: Demo 2007 [demo]
*Year: 2007
*Genre: Death Metal
*Country: Hungary (IMG:https://metalarea.org/forum/style_images/flags/Hungary.png)
*Format: mp3@CBR256kbps
*Size: 20MB

Tracklist:
1. Leszáll az éj
2. Véred Véremmé Vált
3. Segits
******************************
Total playing time: 11:42

Technical info
(IMG:https://metalarea.org/images/spectrogram/2019_Oct/9e97e9f51601edf6e2db4841360912cb.png)
Input File: 3 segíts.mp3
Channels : 2
Sample Rate : 44100
Precision : 16-bit
Duration : 00:04:15.38 = 11262082 samples = 19153.2 CDDA sectors
File Size : 8.17M
Bit Rate : 256k
Sample Encoding: MPEG audio (layer I, II or III)
Comments :
Title=segíts
Artist=Caelestis
Genre=Other



Register


Go to the top of the page
  Insert nick Quick quote
+Quote Post

Reply to this topicStart new topic
2 User(s) are reading this topic (2 Guests and 0 Anonymous Users)
0 Members:

 



- Lo-Fi Version Support form
Copyrights and abuse reports form
Time is now: 13th December 2019 - 22:23:05