Welcome Guest ( Log In | Register )

> Правила / Rules

Тут только для чтения лежат низкобитрейтные (<192kbps) релизы, для которых есть аналоги в высокобитрейтных форумах.

Here goes (and stand in read only mode) low bitrate releases (<192kbps) which were already replaced by high bitrate releases in corresponding forums.

Причина закрытия (Borderline1991 28-10-2019):
 
Closed TopicStart new topic
> Alastor - Šumava (2019), Black Metal (D)
post Oct 23 2019, 21:30:00
Post #1

Четыре Литра
****
Group: Металариец
Posts: 354
Releases: 18
On Forums: 10 years 9 months
Thanks: 405 time(s)
United Kingdom


(IMG:http://metalarea.org/images/audiocovers/2019_Oct/acov_tid329224_thumb.jpg)

*Artist: Alastor
*Album: Šumava
*Year: 2019
*Genre: Black Metal
*Country: Austria (IMG:http://metalarea.org/forum/style_images/flags/Austria.png)
*Format: mp3@CBR320kbps
*Size: 107MB

Tracklist:
1. Plateau of the past 07:41
2. Of our kind 04:11
3. Variszic ruins 01:50
4. Silva - The wild hunt 04:41
5. No mark by men prevailed 07:37
6. No mans land 04:26
7. There is nothing left but to mourn the fallen 05:05
8. Askese 06:15
9. Northern Firestorm 03:04
10. Ice and Nature 05:29
******************************
Total playing time: 50:19



Technical info
(IMG:http://metalarea.org/images/spectrogram/2019_Oct/6b3e631ffac1115c52e00ebff00c8223.png)
Input File: 2 - Of our Kind.mp3
Channels : 2
Sample Rate : 44100
Precision : 16-bit
Duration : 00:04:11.65 = 11097941 samples = 18874 CDDA sectors
File Size : 10.1M
Bit Rate : 321k
Sample Encoding: MPEG audio (layer I, II or III)
Comments :
Title=Of our Kind
Artist=Alastor
Album=Šumava
Tracknumber=2
Year=2019



Register


Go to the top of the page
  Insert nick Quick quote
+Quote Post

Причина закрытия (Borderline1991 28-10-2019):
Closed TopicStart new topic
1 User(s) are reading this topic (1 Guests and 0 Anonymous Users)
0 Members:

 



- Lo-Fi Version Support form
Copyrights and abuse reports form
Time is now: 13th December 2019 - 11:43:32