Welcome Guest ( Log In | Register )

> И неформату есть предел.

Рэп/хип-хоп/шансон/поп удаляются. Для них есть свои порталы.

> David Sylvian & Holger Czukay - Plight & Premonition (1988), Ambient
post Oct 24 2019, 06:17:03
Post #1

Правь статус, ####!111
**************
Group: Металариец
Posts: 47,038
Releases: 732
On Forums: 11 years 2 months
Thanks: 39686 time(s)
Russian Federation


(IMG:http://metalarea.org/images/audiocovers/2019_Oct/acov_tid329235_thumb.jpg)

*Artist: David Sylvian & Holger Czukay
*Album: Plight & Premonition
*Year: 1988
*Genre: Ambient
*Country: United Kingdom (IMG:http://metalarea.org/forum/style_images/flags/United%20Kingdom.png)
*Format: mp3@CBR320kbps
*Size: 79MB

Tracklist:
1. Plight (The Spiralling Of Winter Ghosts) 18:29
2. Premonition (Giant Empty Iron Vessel) 16:22
******************************
Total playing time: 34:51

(IMG:http://metalarea.org/images/youtube.png)

Technical info
(IMG:http://metalarea.org/images/spectrogram/2019_Oct/37c3a12458805af8cd63fb8a869ee638.png)
Input File: 01. Plight (The Spiralling Of Winter Ghosts).mp3
Channels : 2
Sample Rate : 44100
Precision : 16-bit
Duration : 00:18:27.21 = 48828049 samples = 83040.9 CDDA sectors
File Size : 44.3M
Bit Rate : 320k
Sample Encoding: MPEG audio (layer I, II or III)
Comments :
Title=Plight (the spiralling of winter ghosts)
Artist=David Sylvian & Holger Czukay
Album=Plight & Premonition
Tracknumber=01
Year=1988
Genre=26



Register


Go to the top of the page
  Insert nick Quick quote
+Quote Post
 
Start new topic
Replies (1 - 4)
post Oct 24 2019, 09:32:14
Post #2

Правь статус, ####!111
**************
Group: Металариец
Posts: 47,038
Releases: 732
On Forums: 11 years 2 months
Thanks: 39686 time(s)
Russian Federation


Один из лучших эмбиент альбомов. Сотрудничество легендарных музыкантов дало великолепный результат. Очень атмосферная, мрачная и тревожная работа.
Go to the top of the page
  Insert nick Quick quote
+Quote Post
post Oct 24 2019, 10:02:50
Post #3

http://rateyourmusic.com/~Ghostb
**************
Group: Металариец
Posts: 2,212
Releases: 0
From: Харьков
On Forums: 10 years 10 months
Thanks: 1036 time(s)
Ukraine


Сильвиан крут, да. Правда, мне больше первые три его сольника нравятся, этот не слишком запомнился (хотя, он и гораздо менее песенный).


Go to the top of the page
  Insert nick Quick quote
+Quote Post
Anger
post Oct 24 2019, 16:26:13
Post #4

Guests team






помню, как мы с батей в Берлине долго искали диск David Sylvian

вроде, нашли дигипак. но альбом не помню. даже там это раритет. а у нас... можно не говорить
Go to the top of the page
  Insert nick Quick quote
+Quote Post
post Nov 4 2019, 18:56:13
Post #5

####!111
**************
Group: Металариец
Posts: 4,105
Releases: 127
From: The Mountain Of DOOM
On Forums: 12 years 10 months
Thanks: 5635 time(s)
Russian Federation


Слишком много академической музыки
Go to the top of the page
  Insert nick Quick quote
+Quote Post

Reply to this topicStart new topic
1 User(s) are reading this topic (1 Guests and 0 Anonymous Users)
0 Members:

 



- Lo-Fi Version Support form
Copyrights and abuse reports form
Time is now: 10th August 2020 - 00:06:24